Secret Word
GOLLBETTY

ADVANCED

Level: 7
BPM: 182-194
Notes: 451

全程BPM: 182-194飄忽不定
1
口口口口 |----|
口口口口 |----|
口口口口 |----|
口口口口 |----|
2
口口口口 |①-②-|
①②③④ |③-④-|
口⑥⑤口 |--⑤-|
⑦口口⑦ |⑥-⑦-|
3
口口口口 |--①-|
口口口口 |②---|
③④④③ |③---|
口②①口 |④---|
4
①②③④ |①-②-|
⑤⑥⑦⑧ |③-④-|
口口口口 |⑤-⑥-|
口口口口 |⑦-⑧-|
5
口口口口 |--①-|
口口口口 |--②-|
①口口② |--③-|
口③③口 |----|
6
④③②① |①-②-|
口⑤⑤口 |③-④-|
口⑥⑥口 |--⑤-|
口口口口 |--⑥-|
7
口口口口 |--①-|
口④③口 |--②-|
口口口口 |--③-|
②①①② |④---|
8
①②③④ |①-②-|
⑤⑥⑦⑧ |③-④-|
口口口口 |⑤-⑥-|
口口口口 |⑦-⑧-|
9
口口口口 |--①-|
口口口口 |--②-|
①口口② |--③-|
口③③口 |----|
10
④③②① |①-②-|
口⑤⑤口 |③-④-|
口⑥⑥口 |--⑤-|
口口口口 |--⑥-|
11
口口口口 |--①-|
口④③口 |--②-|
口口口口 |--③-|
②①①② |④---|
12
①①①① |①---|
②②②② |----|
口口口口 |----|
口口口口 |--②-|
13
口口口口 |----|
口口口口 |----|
②口口② |①---|
①口口① |②---|
14
口②口口 |①---|
①①①① |----|
口口口口 |----|
口口口口 |--②-|
15
口口口口 |--①-|
口口①口 |--②-|
④②口④ |--③-|
③口口③ |④---|
16
①②③④ |①-②-|
⑤⑥⑦⑧ |③-④-|
口口口口 |⑤-⑥-|
口口口口 |⑦-⑧-|
17
口口口口 |--①-|
口口口口 |--②-|
①口口② |--③-|
口③③口 |----|
18
④③②① |①-②-|
口⑤⑤口 |③-④-|
口⑥⑥口 |--⑤-|
口口口口 |--⑥-|
19
口口口口 |----|
口①口口 |----|
口口口口 |----|
口口口口 |--①-|
20
口口①口 |①-②-|
口口④② |③-④-|
口口③口 |----|
⑤口⑤口 |--⑤-|
21
②口②口 |--①-|
口口口口 |--②-|
口①口① |----|
口③口口 |--③-|
22
口⑤口⑤ |①-②-|
口②口口 |③-④-|
③④①口 |----|
口口口口 |--⑤-|
23
口③口口 |--①-|
①口①口 |--②-|
口口口口 |----|
口②口② |--③-|
24
口口口口 |①-②-|
①④③口 |③-④-|
口②口口 |----|
口⑤口⑤ |--⑤-|
25
口②口② |--①-|
口口口口 |--②-|
①口①③ |----|
口口口口 |--③-|
26
⑤⑥口口 |①-②-|
口口③口 |③-④-|
口②④口 |----|
口口①口 |⑤-⑥-|
27
口口①口 |①-②-|
口口口③ |--③-|
口口③② |----|
口③口② |----|
28
口⑤口⑤ |①-②-|
口②口口 |③-④-|
①口③口 |----|
口④口口 |--⑤-|
29
口口③口 |--①-|
口口口口 |--②-|
①口①口 |----|
口②口② |--③-|
30
口口口口 |①-②-|
口①④③ |③-④-|
口口②口 |----|
口口⑥⑤ |⑤-⑥-|
31
口④口口 |--①-|
口口口口 |②-③-|
③②①口 |----|
口口口口 |--④-|
32
口口口口 |①-②-|
①④③口 |③-④-|
口②口⑤ |----|
口口⑥口 |⑤-⑥-|
33
口④口口 |①-②-|
口口②口 |--③-|
口①③口 |----|
口口口口 |--④-|
34
口口口口 |①-②-|
③④①口 |③-④-|
⑤②口口 |----|
口⑥口口 |⑤-⑥-|
35
口口口④ |①-②-|
口口口③ |--③-|
⑤⑤①口 |--④-|
口口口② |⑤---|
36
①①口口 |①---|
口口口口 |----|
口口口口 |----|
口口③② |②-③-|
37
口口口口 |----|
口口口① |----|
口口口口 |----|
口口口口 |①---|
38
口⑤⑤口 |①-②-|
口口④口 |③-④-|
口③口⑥ |--⑤-|
①口②口 |--⑥-|
39
②口口口 |①-②-|
口口③口 |--③-|
⑥④①⑥ |④-⑤-|
口口⑤口 |⑥---|
40
①口口① |①---|
口口口口 |----|
②口口② |----|
③口口③ |②-③-|
41
口口①口 |----|
口口口口 |----|
口口口口 |----|
口口口口 |①---|
42
口口口口 |①-②-|
口⑤④③ |--③-|
口口①口 |--④-|
口口②口 |--⑤-|
43
①③口② |--①-|
口口④口 |--②-|
口⑤口口 |--③-|
口口口口 |④-⑤-|
44
②口口② |①---|
口口口口 |----|
③口口③ |②---|
④①①④ |③-④-|
45
口口口口 |----|
口口口① |----|
口口口口 |----|
口口口口 |①---|
46
口④④⑤ |①-②-|
口③口口 |--③-|
口口口口 |--④-|
①口②口 |--⑤-|
47
口口口口 |--①-|
口②②口 |--②-|
①口③口 |--③-|
口④口口 |④---|
48
①②口口 |①-②-|
口口③口 |--③-|
口⑥⑤④ |--④-|
口口口口 |⑤-⑥-|
49
口口口⑤ |①-②-|
口④④口 |--③-|
口口口口 |--④-|
①②口③ |--⑤-|
50
口②①口 |①-②-|
口口口口 |--③-|
口口口口
③口③口

⑤口⑤口
口口口口
口④口④ |--④-|
口口口口 |--⑤-|
51
口口口口 |----|
口口口口 |----|
口口口口 |----|
口口口口 |----|
52
①②③④ |①-②-|
口②口口 |③-④-|
①口口口
口口口口

口口口口
口口口口
⑦口口口 |--⑤-|
口口⑥⑤ |⑥-⑦-|
53
⑤④③② |--①-|
口口③口 |----|
口口口② |②-③-|
①口口口 |④-⑤-|
54
口口口口 |--①-|
③口口口 |--②-|
②④④口 |--③-|
①口口口 |--④-|
55
口口口④ |--①-|
口①①③ |--②-|
口口口口 |--③-|
口口口② |④---|
56
口④口口 |①-②-|
口③口口 |③-④-|
口②⑥口 |----|
口①⑤口 |⑤-⑥-|
57
③口②口 |①-②-|
④口①口 |----|
⑤口口⑥ |③-④-|
口口口口 |⑤-⑥-|
58
⑤口口口 |--①-|
④口口口 |--②-|
口②①口 |③-④-|
口③口口 |--⑤-|
59
口口口口 |----|
口口口口 |----|
口口口口 |----|
口口口口 |----|
60
①②③④ |①-②-|
口②口口 |③-④-|
①口口口
口口口口

⑦口口口
口口口口
口口口口 |--⑤-|
口口⑥⑤ |⑥-⑦-|
61
⑦⑥⑤④ |①-②-|
①口⑤口 |③---|
②口口④ |④-⑤-|
③口口口 |⑥-⑦-|
62
口口口口 |--①-|
口口口③ |--②-|
口口口② |--③-|
①④口口 |--④-|
63
口口口口 |①-②-|
口②口口 |--③-|
口①④口 |④---|
口口③口 |----|
64
①②③④ |①-②-|
口口③口 |③-④-|
口口口④ |--⑤-|
⑤⑥口口 |--⑥-|
65
口口口口 |--①-|
口口口口 |--②-|
④③②口 |③-④-|
口口口① |----|
66
口口口口 |①-②-|
①②③④ |③-④-|
口⑥⑤口 |--⑤-|
⑦口口⑦ |⑥-⑦-|
67
口口口口 |--①-|
口口口口 |②---|
③④④③ |③---|
口②①口 |④---|
68
口口口口 |----|
口口口口 |----|
口口口口 |----|
口口口口 |----|
69
口口口口 |----|
口①①口 |----|
口口口口 |①---|
口②②口 |②---|
70
口口口口 |----|
口口口口 |----|
口口口口 |----|
口口口口 |----|
71
④④④④ |①---|
③③③③ |②---|
②②②② |③---|
①①①① |④---|
72
口口口口 |----|
口口口口 |①-②-|
③口口④ |----|
①口口② |③-④-|
73
①口①口 |--①-|
口②口② |--②-|
③口③口 |--③-|
口④口④ |--④-|
74
口口口口 |----|
口口口口 |----|
口②口口 |①---|
口口①口 |②---|
75
③④⑤口 |①-②-|
口②①口 |③---|
口口口口 |④---|
口口口口 |⑤---|
76
口口口口 |①---|
①口④① |----|
口口③口 |--②-|
口口②口 |③-④-|
77
口口口口 |----|
口②口口 |----|
口①口口 |----|
口口口口 |①-②-|
78
①口口① |--①-|
②口口② |--②-|
③口口③ |--③-|
④口口④ |--④-|
79
口口口口 |----|
口口口口 |----|
口①①口 |①---|
口口口口 |----|
80
④口口口 |①-②-|
③口口口 |③-④-|
②口口⑥ |----|
①口口⑤ |⑤-⑥-|
81
口口口② |①-②-|
口口口① |----|
口④③口 |--③-|
口口口口 |④---|
82
口口口口 |①-②-|
①②③④ |③-④-|
口⑥⑤口 |--⑤-|
⑦口口⑦ |⑥-⑦-|
83
口口口口 |--①-|
④④④④ |②---|
③口口③ |③---|
口②①口 |④---|


不确定度: 0

最終更新:2012年11月16日 18:47