Secret Word
GOLLBETTY

EXTREME

Level: 8
BPM: 182-194
Notes: 596

全程BPM: 182-194飄忽不定
1
口口口口 |----|
口口口口 |----|
口口口口 |----|
口口口口 |----|
2
⑦口口⑦ |①-②-|
①⑥⑥④ |③-④-|
③口口② |--⑤-|
口⑤⑤口 |⑥-⑦-|
3
口①②口 |--①-|
口口口口 |②---|
③⑥⑥③ |③-④-|
⑤④④⑤ |⑤-⑥-|
4
①②⑦⑧ |①-②-|
⑤⑥③④ |③-④-|
口口口口 |⑤-⑥-|
口口口口 |⑦-⑧-|
5
口口口口 |--①-|
口口口口 |--②-|
①①②② |--③-|
③③③③ |----|
6
①②口口 |①-②-|
口口③④ |③-④-|
⑤⑤⑥⑥ |--⑤-|
口口口口 |--⑥-|
7
口③④口 |--①-|
口口口口 |--②-|
口口口口 |--③-|
①①②② |④---|
8
口口口口 |①-②-|
口口口口 |③-④-|
⑤⑥③④ |⑤-⑥-|
①②⑦⑧ |⑦-⑧-|
9
③③③③ |--①-|
①①②② |--②-|
口口口口 |--③-|
口口口口 |----|
10
口口口口 |①-②-|
⑤⑤⑥⑥ |③-④-|
口口③④ |--⑤-|
①②口口 |--⑥-|
11
①①②② |--①-|
口口口口 |--②-|
口口口口 |--③-|
口③④口 |④---|
12
④口口④ |①---|
③口口③ |②---|
②口口② |③---|
①口口① |④---|
13
口①②口 |①-②-|
口③③口 |--③-|
口口口口 |--④-|
口④④口 |----|
14
④⑤口④ |①---|
③口口③ |②---|
②口口② |③---|
①口口① |④-⑤-|
15
口口①口 |①-②-|
口②③口 |③-④-|
口④口⑥ |--⑤-|
口口⑤口 |⑥---|
16
①②⑦⑧ |①-②-|
⑤⑥③④ |③-④-|
口口口口 |⑤-⑥-|
口口口口 |⑦-⑧-|
17
口口口口 |--①-|
口口口口 |--②-|
①①②② |--③-|
③③③③ |----|
18
①②口口 |①-②-|
口口③④ |③-④-|
口⑤⑤口 |--⑤-|
⑥⑥⑥⑥ |--⑥-|
19
口口口口 |----|
口①口口 |----|
口口口口 |----|
口口口口 |--①-|
20
口口①口 |①-②-|
④口④② |③-④-|
口⑤③口 |----|
⑤口⑤口 |--⑤-|
21
口②口口 |--①-|
②①②① |--②-|
口口①口 |----|
口③口口 |--③-|
22
口⑤口⑤ |①-②-|
口②⑤口 |③-④-|
③④①④ |----|
口口口口 |--⑤-|
23
口口口口 |--①-|
口①③口 |--②-|
①②①② |----|
口口②口 |--③-|
24
口①口口 |①-②-|
②④口④ |③-④-|
口③⑤口 |----|
口⑤口⑤ |--⑤-|
25
口口②口 |--①-|
①②①② |--②-|
口①口③ |----|
口口口口 |--③-|
26
⑤⑥口口 |①-②-|
口口③口 |③-④-|
④②④口 |----|
口口①口 |⑤-⑥-|
27
④④①② |①-②-|
口口③② |--③-|
口③③② |----|
③③口② |④---|
28
口⑤口⑤ |①-②-|
口②⑤口 |③-④-|
①口③口 |----|
口④口④ |--⑤-|
29
口口③口 |--①-|
口①口口 |--②-|
①②①② |----|
口口②口 |--③-|
30
口口口口 |①-②-|
④①④③ |③-④-|
口口②口 |----|
口口⑥⑤ |⑤-⑥-|
31
口④口口 |--①-|
口口口口 |②-③-|
③口①口 |----|
口②口口 |--④-|
32
口口口口 |①-②-|
①④③④ |③-④-|
口②口⑤ |----|
口口⑥口 |⑤-⑥-|
33
口④口口 |①-②-|
口口②口 |--③-|
③①③口 |----|
口口口口 |--④-|
34
口口口口 |①-②-|
③④①④ |③-④-|
口②口⑥ |----|
⑤口⑤口 |⑤-⑥-|
35
⑤口⑤口 |①-②-|
口口①④ |--③-|
③②③口 |--④-|
口口口口 |⑤---|
36
口①口① |①---|
口②②口 |----|
③口口③ |----|
口口口口 |②-③-|
37
口口口口 |----|
口口口① |----|
口口口口 |----|
口口口① |①---|
38
口⑤⑤⑥ |①-②-|
①口④口 |③-④-|
口③口⑥ |--⑤-|
①口②口 |--⑥-|
39
①口口口 |--①-|
⑤口②⑤ |--②-|
①③口口 |③-④-|
口口④口 |⑤---|
40
①①①① |①---|
口口口口 |----|
②口口② |----|
③③③③ |②-③-|
41
口①口① |----|
口口口口 |----|
口口口口 |----|
口口口口 |①---|
42
口口口口 |①-②-|
⑤④口③ |--③-|
口口①③ |--④-|
口口②口 |--⑤-|
43
①口口① |--①-|
口口④口 |--②-|
②⑤口② |--③-|
③口口③ |④-⑤-|
44
②口口② |①---|
口口口口 |----|
③口口③ |②---|
④①①④ |③-④-|
45
口口口口 |----|
口口口① |----|
口口口口 |----|
口口口① |①---|
46
口④④⑤ |①-②-|
①②③口 |--③-|
口口口⑤ |--④-|
①③②口 |--⑤-|
47
①口口口 |--①-|
口②②口 |--②-|
①口③口 |--③-|
口④口口 |④---|
48
①口口口 |①-②-|
⑥口③口 |--③-|
口③口④ |--④-|
口口⑤② |⑤-⑥-|
49
口口口① |①-②-|
口③口④ |--③-|
④口③⑤ |--④-|
②口口口 |--⑤-|
50
口口口② |①-②-|
①口口口 |--③-|
口③口口
③口③口

口⑤口口
⑤④⑤④
口口④口 |--④-|
口口口口 |--⑤-|
51
口口口口 |----|
口口口口 |----|
口口口口 |----|
口口口口 |----|
52
①②③④ |①-②-|
⑦⑦③口 |③-④-|
口②⑥口 |--⑤-|
①口口⑤ |⑥-⑦-|
53
⑤④③② |--①-|
口④口口 |----|
口口③口 |②-③-|
①①口② |④-⑤-|
54
口口口口 |--①-|
③口③口 |--②-|
口②口② |--③-|
①①④口 |--④-|
55
口③①口 |①-②-|
口口口口 |③-④-|
⑤⑥⑥⑤ |--⑤-|
④②口④ |⑥---|
56
①④④① |①-②-|
③②②③ |③-④-|
口⑤⑤口 |----|
⑥口口⑥ |⑤-⑥-|
57
口口口口 |①-②-|
口口口口 |----|
①口口①
口②②口

③口⑤口
口④口口
口口口⑥ |③-④-|
口口口⑥ |⑤-⑥-|
58
⑤⑤口口 |--①-|
④口口口 |--②-|
口②①口 |③-④-|
③②①口 |--⑤-|
59
口口口口 |----|
口口口口 |----|
口口口口 |----|
口口口口 |----|
60
①②③④ |①-②-|
⑦口③口 |③-④-|
口②⑥口 |--⑤-|
①口口⑤ |⑥-⑦-|
61
⑦⑥⑤④ |①-②-|
口⑥口口 |③---|
口①⑤口 |④-⑤-|
②③口④ |⑥-⑦-|
62
口口口口 |--①-|
③口③口 |--②-|
口②口② |--③-|
①④口口 |--④-|
63
口口口口 |①-②-|
口②口口 |--③-|
④口①④ |④---|
③口口③ |----|
64
①②③④ |①-②-|
口②⑥⑤ |③-④-|
口口③⑤ |--⑤-|
口口口④ |--⑥-|
65
口口口口 |--①-|
口口口口 |--②-|
①①口口 |③-④-|
②③④口 |----|
66
⑦口口⑦ |①-②-|
①⑥⑥④ |③-④-|
③口口② |--⑤-|
口⑤⑤口 |⑥-⑦-|
67
口①②口 |--①-|
口口口口 |②---|
③⑥⑥③ |③-④-|
⑤④④⑤ |⑤-⑥-|
68
口口口口 |----|
口口口口 |----|
口口口口 |----|
口口口口 |----|
69
口口口口 |----|
①①①① |----|
口口口口 |①---|
②②②② |②---|
70
口口口口 |----|
口口口口 |----|
口口口口 |----|
口口口口 |----|
71
④④④④ |①---|
③③③③ |②---|
②②②② |③---|
①①①① |④---|
72
口口口口 |----|
口口口④ |①-②-|
③口口② |----|
①口口口 |③-④-|
73
①口口② |--①-|
③②①④ |--②-|
口④③口 |--③-|
口口口口 |--④-|
74
②口口② |----|
口口口口 |----|
口口口口 |①---|
①口口① |②---|
75
口口口口 |①-②-|
③口口③ |③---|
④①②④ |④---|
⑤口口⑤ |⑤---|
76
①口口① |①---|
口口口口 |----|
口口口口
口口口口

口口口④
口口④③
口口③② |--②-|
口口②口 |③-④-|
77
②口口口 |----|
①②口口 |----|
口①口口 |----|
口口口口 |①-②-|
78
口①①口 |--①-|
口口②② |--②-|
口③③口 |--③-|
④④口口 |--④-|
79
口口口口 |----|
口口口口 |----|
①口口① |①---|
口口口口 |----|
80
①④④① |①-②-|
③②②③ |③-④-|
口⑤⑤口 |----|
⑥口口⑥ |⑤-⑥-|
81
口④④口 |①-②-|
口③③口 |----|
①口口① |--③-|
口②②口 |④---|
82
⑦口口⑦ |①-②-|
①⑥⑥④ |③-④-|
③口口② |--⑤-|
口⑤⑤口 |⑥-⑦-|
83
口①②口 |--①-|
口口口口 |②---|
③⑥⑥③ |③-④-|
⑤④④⑤ |⑤-⑥-|


不确定度: 0

最終更新:2012年11月16日 18:47