理由なき反抗
おとぎ話

ADVANCED

Level: 5
BPM: 180-213
Notes: 383

全程BPM: 180-213飄忽不定
1
口口口口 |----|
口口口口 |----|
口口口口 |----|
口口口口 |----|
2
①口口③ |①---|
口②④口 |②---|
口口口口 |③---|
口口口口 |④---|
3
口口口口 |①---|
口口口口 |②---|
①口口③ |③---|
口②④口 |④---|
4
口口口口 |①---|
口②②口 |----|
口①①口 |②---|
口口口口 |----|
5
口口口口 |①---|
口口口口 |----|
②口口② |②---|
①口口① |----|
6
①口口③ |①---|
口②④口 |②---|
口口口口 |③---|
口口口口 |④---|
7
口口口口 |①---|
口口口口 |②---|
①口口③ |③---|
口②④口 |④---|
8
口口口口 |①---|
口②②口 |----|
口①①口 |②---|
口口口口 |----|
9
口口口口 |①---|
口口口口 |----|
②口口② |②---|
①口口① |----|
10
①口口口 |①---|
口②口口 |②---|
③口口口 |③---|
口④口口 |④---|
11
口口②② |①---|
口口口口 |----|
口口①① |②---|
口口口口 |----|
12
口①口口 |①---|
②口口口 |②---|
口③口口 |③---|
④口口口 |④---|
13
口口口口 |①---|
口口①① |----|
口口口口 |②---|
口口②② |----|
14
口口口口 |①---|
口①②口 |②---|
口④③口 |③---|
口口口口 |④---|
15
口口口口 |①---|
口①②口 |②---|
口④③口 |③---|
口口口口 |④---|
16
口口口口 |①---|
口口口口 |----|
口口口口 |----|
①口口① |----|
17
口口口口 |①---|
①口口① |----|
口口口口 |----|
口口口口 |----|
18
①口口③ |①---|
口②④口 |②---|
口口口口 |③---|
口口口口 |④---|
19
口口口口 |①---|
口口口口 |②---|
①口口③ |③---|
口②④口 |④---|
20
口口口口 |①---|
口②②口 |----|
口①①口 |②---|
口口口口 |----|
21
口口口口 |①---|
口口口口 |----|
②口口② |②---|
①口口① |----|
22
①口口③ |①---|
口②④口 |②---|
口口口口 |③---|
口口口口 |④---|
23
口口口口 |①---|
口口口口 |②---|
①口口③ |③---|
口②④口 |④---|
24
口②②口 |①---|
口口口口 |--②-|
口①①口 |----|
口口口口 |----|
25
口口口口 |①---|
口口口口 |----|
口口口口 |----|
口①①口 |----|
26
①口口口 |①---|
口②口口 |②---|
③口口口 |③---|
口④口口 |④---|
27
口口②② |①---|
口口口口 |----|
口口①① |②---|
口口口口 |----|
28
口①口口 |①---|
②口口口 |②---|
口③口口 |③---|
④口口口 |④---|
29
口口口口 |①---|
口口①① |----|
口口口口 |②---|
口口②② |----|
30
口口口口 |①---|
口①②口 |②---|
口④③口 |③---|
口口口口 |④---|
31
口口口口 |①---|
口①②口 |②---|
口④③口 |③---|
口口口口 |④---|
32
口口口口 |①---|
口口口口 |----|
口口口口 |----|
①口口① |----|
33
口口口口 |①---|
①口口① |----|
口口口口 |----|
口口口口 |----|
34
①②口口 |①---|
②①口口 |②---|
口口③④ |③---|
口口④③ |④---|
35
口口①② |①---|
口口②① |②---|
③口口口 |③---|
口③口口 |----|
36
口④口口 |①---|
口③口口 |②---|
口②口口 |③---|
①口口口 |④---|
37
口口④口 |①---|
口口③口 |②---|
口口②口 |③---|
口口口① |④---|
38
①②口口 |①---|
②①口口 |②---|
口口③④ |③---|
口口④③ |④---|
39
口口①② |①---|
口口②① |②---|
③④口口 |③---|
④③口口 |④---|
40
口①口口 |①---|
口②口④ |②---|
口口③口 |③---|
口口口口 |④---|
41
口口口① |①---|
口口口口 |----|
口口口口 |----|
口口口口 |----|
42
口口口口 |①---|
口口口口 |----|
口②②口 |②---|
口①①口 |----|
43
②口口口 |①---|
口①①口 |----|
口口口口 |----|
口口口口 |②---|
44
口口口① |①---|
②口口③ |②---|
④口口口 |③---|
口口口口 |④---|
45
口口口口 |①---|
口口口口 |----|
口口口① |----|
口口口口 |----|
46
口口口口 |①---|
口口口口 |----|
口②②口 |②---|
口①①口 |----|
47
②口口口 |①---|
口①①口 |----|
口口口口 |----|
口口口口 |②---|
48
口口口① |①---|
②口口③ |②---|
④口口口 |③---|
口口口口 |④---|
49
口口口口 |①---|
口口口口 |----|
口口口① |----|
口口口口 |----|
50
①口②口 |①---|
口口口口 |----|
口口口口 |②---|
口口口口 |----|
51
口①口② |①---|
口口口口 |----|
口口口口 |②---|
口口口口 |----|
52
口口口口 |①---|
①口②口 |----|
口口口口 |②---|
口口口口 |----|
53
口口口口 |①---|
口①口② |----|
口口口口 |②---|
口口口口 |----|
54
①口②口 |①---|
口口口口 |----|
口口口口 |②---|
口口口口 |----|
55
口①口② |①---|
口口口口 |----|
口口口口 |②---|
口口口口 |----|
56
口口口口 |①---|
①口②口 |----|
口口口口 |②---|
口口口口 |----|
57
口口口口 |①---|
口①口② |----|
口口口口 |②---|
口口口口 |----|
58
口口口口 |①---|
口口口口 |②---|
①②③④ |③---|
口口口口 |④---|
59
口口口口 |①---|
口口口口 |②---|
口口口口 |③---|
④③②① |④---|
60
口口口口 |①---|
①②③④ |②---|
口口口口 |③---|
口口口口 |④---|
61
口口口口 |①---|
口口口口 |②---|
④③②① |③---|
口口口口 |④---|
62
口①口口 |①---|
口口②口 |②---|
口③口口 |③---|
口口④口 |④---|
63
口口①口 |①---|
口②口口 |②---|
口口③口 |③---|
口④口口 |④---|
64
①口口口 |①---|
口口口② |②---|
③口口口 |③---|
口口口④ |④---|
65
口口口① |①---|
②口口口 |②---|
口口口③ |③---|
④口口口 |④---|
66
口①①口 |①---|
口②②口 |----|
口口口口 |②---|
口口口口 |----|
67
口口口口 |①---|
口口口口 |----|
口①①口 |----|
口口口口 |----|
68
口①①口 |①---|
口②②口 |----|
口口口口 |②---|
口口口口 |----|
69
口口口口 |①---|
口口口口 |----|
口①①口 |----|
口口口口 |----|
70
口口口口 |①---|
口①①口 |----|
口②②口 |②---|
口口口口 |----|
71
口口口口 |①---|
口口口口 |----|
口口口口 |----|
口①①口 |----|
72
口口口口 |①---|
口口口口 |----|
口②②口 |②---|
口①①口 |----|
73
口口口口 |①---|
口①①口 |----|
口口口口 |----|
口口口口 |----|
74
①②口口 |①---|
②①口口 |②---|
口口③④ |③---|
口口④③ |④---|
75
口口①② |①---|
口口②① |②---|
③④口口 |③---|
④③口口 |④---|
76
①口口口 |①---|
口口②口 |②---|
口口③口 |③---|
口口④口 |④---|
77
口口口口 |①---|
口①口口 |②---|
口②口口 |③---|
口③口口 |----|
78
①②口口 |①---|
②①口口 |②---|
口口③④ |③---|
口口④③ |④---|
79
口口①② |①---|
口口②① |②---|
③④口口 |③---|
④③口口 |④---|
80
口①口口 |①---|
口②口④ |②---|
口口③口 |③---|
口口口口 |④---|
81
口口口① |①---|
口口口口 |----|
口口口口 |----|
口口口口 |----|
82
①②口口 |①---|
②①口口 |②---|
口口③④ |③---|
口口④③ |④---|
83
口口①② |①---|
口口②① |②---|
③④口口 |③---|
④③口口 |④---|
84
①口口口 |①---|
口口②口 |②---|
口口③口 |③---|
口口④口 |④---|
85
口口口口 |①---|
口①口口 |②---|
口②口口 |③---|
口③口口 |----|
86
①②口口 |①---|
②①口口 |②---|
口口③④ |③---|
口口④③ |④---|
87
口口①② |①---|
口口②① |②---|
③④口口 |③---|
④③口口 |④---|
88
口①口口 |①---|
口②口④ |②---|
口口③口 |③---|
口口口口 |④---|
89
口口口① |①---|
口口口口 |----|
口口口口 |----|
口口口口 |----|
90
口口口口 |①---|
口口口口 |----|
口②②口 |②---|
口①①口 |----|
91
②口口口 |①---|
口①①口 |----|
口口口口 |----|
口口口口 |②---|
92
口口口① |①---|
②口口③ |②---|
④口口口 |③---|
口口口口 |④---|
93
口口口口 |①---|
口口口口 |----|
口口口① |----|
口口口口 |----|
94
口口口口 |①---|
口口口口 |----|
口②②口 |②---|
口①①口 |----|
95
②口口口 |①---|
口①①口 |----|
口口口口 |----|
口口口口 |②---|
96
口口口① |①---|
②口口③ |②---|
④口口口 |③---|
口口口口 |④---|
97
口口口口 |①---|
口④④口 |②---|
口③③① |③---|
口②②口 |④---|
98
②①①② |①---|
③口口③ |②---|
口口口口 |③---|
口④④口 |④---|


不确定度: 0

最終更新:2012年11月16日 18:46