理由なき反抗
おとぎ話

EXTREME

Level: 8
BPM: 180-213
Notes: 577

全程BPM: 180-213飄忽不定
1
口口口口 |----|
口口口口 |----|
口口口口 |----|
口口口口 |----|
2
口口口口 |①-②-|
①②⑥⑤ |③-④-|
③④⑧⑦ |⑤-⑥-|
口口口口 |⑦-⑧-|
3
⑦①②⑧ |①-②-|
⑤口口⑥ |③-④-|
口口口口 |⑤-⑥-|
口③④口 |⑦-⑧-|
4
口口②口 |①-②-|
口口③口 |③-④-|
口口④口 |⑤---|
①口⑤口 |----|
5
口⑤口口 |①-②-|
口④口口 |③-④-|
口③口口 |⑤---|
口②口① |----|
6
①⑥②⑤ |①-②-|
③⑧④⑦ |③-④-|
口口口口 |⑤-⑥-|
口口口口 |⑦-⑧-|
7
⑤口口⑥ |①-②-|
⑦口口⑧ |③-④-|
③①②④ |⑤-⑥-|
口口口口 |⑦-⑧-|
8
口口②口 |①-②-|
口口③口 |③-④-|
口口④口 |⑤---|
①口⑤口 |----|
9
口⑤口⑥ |①-②-|
口④⑦口 |③-④-|
口③⑧口 |⑤-⑥-|
口②口① |⑦-⑧-|
10
口口口口 |①---|
②口口② |②---|
③口口③ |③---|
④口①④ |④---|
11
①口口① |①---|
口②③口 |--②-|
口口口口 |③---|
口口口口 |----|
12
口口口口 |①-②-|
口口口口 |③-④-|
①②⑥⑤ |⑤-⑥-|
③④⑧⑦ |⑦-⑧-|
13
②口口口 |①---|
③①①口 |②-③-|
④口口口 |④---|
口口口口 |----|
14
口①②口 |①-②-|
⑧口口③ |③-④-|
⑦口口④ |⑤-⑥-|
口⑥⑤口 |⑦-⑧-|
15
口口口口 |①-②-|
口②①口 |③-④-|
⑧④③⑦ |⑤-⑥-|
⑥口口⑤ |⑦-⑧-|
16
口①①口 |①---|
口③③口 |----|
口②②口 |②---|
口口口口 |③---|
17
口口口口 |----|
口口口口 |----|
口口口口 |----|
口口口口 |----|
18
口口口口 |①-②-|
①②⑥⑤ |③-④-|
③④⑧⑦ |⑤-⑥-|
口口口口 |⑦-⑧-|
19
⑦①②⑧ |①-②-|
⑤口口⑥ |③-④-|
口口口口 |⑤-⑥-|
口③④口 |⑦-⑧-|
20
口口②口 |①-②-|
口口③口 |③-④-|
口口④口 |⑤---|
①口⑤口 |----|
21
口⑤口口 |①-②-|
口④口口 |③-④-|
口③口口 |⑤---|
口②口① |----|
22
①⑥②⑤ |①-②-|
③⑧④⑦ |③-④-|
口口口口 |⑤-⑥-|
口口口口 |⑦-⑧-|
23
⑤口口⑥ |①-②-|
⑦口口⑧ |③-④-|
③①②④ |⑤-⑥-|
口口口口 |⑦-⑧-|
24
口口口口 |①---|
口②②口 |--②-|
口口口口 |----|
口①①口 |----|
25
口①①② |①---|
口口③口 |----|
口口④口 |--②-|
口口口口 |③-④-|
26
口口口口 |①---|
②口口② |②---|
③口口③ |③---|
④口①④ |④---|
27
①口口① |①---|
口②③口 |--②-|
口口口口 |③---|
口口口口 |----|
28
口口口口 |①-②-|
口口口口 |③-④-|
①②⑥⑤ |⑤-⑥-|
③④⑧⑦ |⑦-⑧-|
29
②口口口 |①---|
③①①口 |②-③-|
④口口口 |④---|
口口口口 |----|
30
口①②口 |①-②-|
⑧口口③ |③-④-|
⑦口口④ |⑤-⑥-|
口⑥⑤口 |⑦-⑧-|
31
口口口口 |①-②-|
口②①口 |③-④-|
⑧④③⑦ |⑤-⑥-|
⑥口口⑤ |⑦-⑧-|
32
口①①口 |①---|
口口口口 |----|
口口口口 |----|
口口口口 |----|
33
口口口口 |----|
口口口口 |----|
口口口口 |----|
口口口口 |----|
34
①口②口 |①---|
口③口④ |②---|
②口①口 |③---|
口④口③ |④---|
35
口①口② |①---|
③口口口 |②---|
口②口① |③---|
口口③口 |----|
36
①②口口 |①-②-|
口口④③ |③-④-|
⑤⑥口口 |⑤-⑥-|
口口⑧⑦ |⑦-⑧-|
37
①口口① |①---|
②③③② |②---|
口口口口 |③---|
口口口口 |----|
38
①口②口 |①---|
口③口④ |②---|
②口①口 |③---|
口④口③ |④---|
39
口①口② |①---|
③口④口 |②---|
口②口① |③---|
④口③口 |④---|
40
③④④③ |①---|
口口口口 |②---|
①②②① |③---|
口口口口 |④---|
41
口口口口 |①---|
①①①① |----|
口口口口 |----|
口口口口 |----|
42
口口口口 |①---|
口口口口 |----|
②②②② |②---|
①①①① |----|
43
口口口口 |①---|
①①①① |----|
口口口口 |----|
口②口口 |②---|
44
口③④口 |①---|
②口口口 |②---|
①口口口 |③---|
口口口口 |④---|
45
口口口口 |①---|
口口口① |----|
口口口口 |----|
口口口口 |----|
46
口口口口 |①---|
口口口口 |----|
②②②② |②---|
①①①① |----|
47
口口口口 |①---|
①①①① |----|
口口口口 |----|
口口②口 |②---|
48
口④③口 |①---|
口口口② |②---|
口口口① |③---|
口口口口 |④---|
49
口口口口 |①---|
①口口口 |----|
口口口口 |----|
口口口口 |----|
50
①③②④ |①---|
口口口口 |②---|
口口口口 |③---|
口口口口 |④---|
51
口口口口 |①---|
①③②④ |②---|
口口口口 |③---|
口口口口 |④---|
52
①③②④ |①---|
口口口口 |②---|
口口口口 |③---|
口口口口 |④---|
53
口口口口 |①---|
①③②④ |②---|
口口口口 |③---|
口口口口 |④---|
54
口口口口 |①---|
口口口口 |②---|
①③②④ |③---|
口口口口 |④---|
55
口口口口 |①---|
①③②④ |②---|
口口口口 |③---|
口口口口 |④---|
56
口口口口 |①---|
口口口口 |②---|
①③②④ |③---|
口口口口 |④---|
57
口口口口 |①---|
口口口口 |②---|
口口口口 |③---|
①③②④ |④---|
58
①③②④ |①---|
①③②④ |②---|
口口口口 |③---|
口口口口 |④---|
59
口口口口 |①---|
口口口口 |②---|
①③②④ |③---|
①③②④ |④---|
60
①③②④ |①---|
①③②④ |②---|
口口口口 |③---|
口口口口 |④---|
61
口口口口 |①---|
口口口口 |②---|
①③②④ |③---|
①③②④ |④---|
62
①口口口 |①---|
口口④口 |②---|
口口②口 |③---|
③口口口 |④---|
63
口口口① |①---|
口④口口 |②---|
口②口口 |③---|
口口口③ |④---|
64
口④口口 |①---|
③口口口 |②---|
②口口口 |③---|
口①口口 |④---|
65
口口①口 |①---|
口口口② |②---|
口口口③ |③---|
口口④口 |④---|
66
①①①① |①---|
②②②② |----|
口口口口 |②---|
口口口口 |----|
67
口口口口 |①---|
口口口口 |----|
①①①① |----|
口口口口 |----|
68
①①①① |①---|
②②②② |----|
口口口口 |②---|
口口口口 |----|
69
口口口口 |①---|
口口口口 |----|
①①①① |----|
口口口口 |----|
70
口口口口 |①---|
①①①① |----|
②②②② |②---|
口口口口 |----|
71
口口口口 |①---|
口口口口 |----|
口口口口 |----|
①①①① |----|
72
口口口口 |①---|
口口口口 |----|
②②②② |②---|
①①①① |----|
73
口口口口 |①---|
①①①① |----|
口口口口 |----|
口口口口 |----|
74
①口②口 |①---|
口③口④ |②---|
②口①口 |③---|
口④口③ |④---|
75
口①口② |①---|
③口④口 |②---|
口②口① |③---|
④口③口 |④---|
76
②口口② |①---|
口口口口 |----|
①口口① |②---|
口口口口 |----|
77
口①①口 |①---|
口②②口 |②---|
口口口口 |③---|
口③③口 |----|
78
①口②口 |①---|
口③口④ |②---|
②口①口 |③---|
口④口③ |④---|
79
口①口② |①---|
③口④口 |②---|
口②口① |③---|
④口③口 |④---|
80
③④④③ |①---|
口口口口 |②---|
①②②① |③---|
口口口口 |④---|
81
口口口口 |①---|
①①①① |----|
口口口口 |----|
口口口口 |----|
82
①口②口 |①---|
口③口④ |②---|
②口①口 |③---|
口④口③ |④---|
83
口①口② |①---|
③口④口 |②---|
口②口① |③---|
④口③口 |④---|
84
①口口② |①---|
③口口④ |②---|
口②①口 |③---|
口④③口 |④---|
85
口①①口 |①---|
口②②口 |②---|
口口口口 |③---|
③口口③ |----|
86
①口②口 |①---|
口③口④ |②---|
②口①口 |③---|
口④口③ |④---|
87
口①口② |①---|
③口④口 |②---|
口②口① |③---|
④口③口 |④---|
88
②①①② |①---|
口口口口 |②---|
③口口③ |③---|
口④④口 |④---|
89
口①①口 |①---|
口口口口 |----|
口口口口 |----|
口口口口 |----|
90
口口口口 |①---|
口口口口 |----|
②②②② |②---|
①①①① |----|
91
口口口口 |①---|
①①①① |----|
口口口口 |----|
口②口口 |②---|
92
口③④口 |①---|
②口口口 |②---|
①口口口 |③---|
口口口口 |④---|
93
口口口口 |①---|
口口口① |----|
口口口口 |----|
口口口口 |----|
94
口口口口 |①---|
口口口口 |----|
②②②② |②---|
①①①① |----|
95
口口口口 |①---|
①①①① |----|
口口口口 |----|
口口②口 |②---|
96
口④③口 |①---|
口口口② |②---|
口口口① |③---|
口口口口 |④---|
97
口口口口 |①---|
①①口口 |②---|
口口②② |③---|
③③④④ |④---|
98
口③③口 |①---|
口口②② |②---|
①①口口 |③---|
④④④④ |④---|


不确定度: 0

最終更新:2012年11月16日 18:46