MR.アンディ
UNISON SQUARE GARDEN

BASIC

Level: 2
BPM: 121
Notes: 175

1
口口口口 |----|
口口口口 |----|
口口口口 |----|
口口口口 |----|
2
口①②口 |①---|
口口口口 |----|
口口口口 |②---|
口口口口 |----|
3
口口口口 |①---|
④③②① |②---|
口口口口 |③---|
口口口口 |④---|
4
口口口口 |①---|
口口口口 |----|
口①②口 |②---|
口口口口 |----|
5
口口口口 |①---|
口口口口 |②---|
口口口口 |③---|
④③②① |④---|
6
口口口口 |①---|
口口口口 |----|
口①②口 |②---|
口口口口 |----|
7
口口口口 |①---|
④③②① |②---|
口口口口 |③---|
口口口口 |④---|
8
口①口口 |①---|
口口②口 |②---|
口③口口 |③---|
口口④口 |④---|
9
口口口口 |①---|
口口口口 |----|
口②口口 |②---|
口①口口 |----|
10
口口口口 |①---|
口①①口 |----|
口口口口 |----|
口口口口 |----|
11
口口①口 |①---|
口口②口 |----|
口口口口 |②---|
口口口口 |----|
12
口口口口 |①---|
口口口口 |②---|
口①②③ |③---|
口口口口 |----|
13
口口口口 |①---|
口口②口 |----|
口口①口 |②---|
口口口口 |----|
14
口口③口 |①---|
口口②口 |②---|
口口①口 |③---|
口口口口 |----|
15
口口口口 |①---|
口①口口 |----|
口②口口 |②---|
口口口口 |----|
16
口口口口 |①---|
口口口口 |----|
口口口口 |----|
口①①口 |----|
17
口口口口 |①---|
口口口口 |----|
口口②口 |②---|
口口①口 |----|
18
口口口口 |①---|
口①①口 |----|
口口口口 |----|
口口口口 |----|
19
口①口口 |①---|
口②口口 |----|
口口口口 |②---|
口口口口 |----|
20
口口口口 |①---|
口口口口 |②---|
③②①口 |③---|
口口口口 |----|
21
口口口口 |①---|
口②口口 |----|
口①口口 |②---|
口口口口 |----|
22
口③口口 |①---|
口②口口 |②---|
口①口口 |③---|
口口口口 |----|
23
口口口口 |①---|
口口①口 |----|
口口②口 |②---|
口口口口 |----|
24
口口口口 |①---|
口口口口 |----|
口口口口 |----|
口①①口 |----|
25
③口口口 |①---|
口②②口 |----|
口①①口 |②---|
口口口口 |③---|
26
口①②③ |①---|
口口口口 |②---|
口口口口 |③---|
口口口口 |----|
27
口口口口 |①---|
口口①口 |----|
口②口口 |②---|
口口口口 |----|
28
口口口口 |①---|
口口口口 |----|
口口口口 |----|
口②①口 |②---|
29
口口口口 |①---|
口④③口 |②---|
口①②口 |③---|
口口口口 |④---|
30
口①②口 |①---|
口④③口 |②---|
口口口口 |③---|
口口口口 |④---|
31
口口口口 |①---|
口口口口 |②---|
口①②口 |----|
口③③口 |③---|
32
口口口口 |----|
口②②口 |①---|
口①①口 |②---|
口口口口 |----|
33
①口口② |①---|
口口口口 |----|
口口口口 |②---|
口口口口 |----|
34
口①①口 |①---|
口②②口 |----|
口口口口 |②---|
口口口口 |----|
35
口口口口 |①---|
①②③④ |②---|
口口口口 |③---|
口口口口 |④---|
36
口口口口 |①---|
口口口口 |----|
口①①口 |②---|
②口口口 |----|
37
口口口口 |①---|
口口口口 |----|
口①口口 |②---|
口口②口 |----|
38
口口口③ |①---|
口口口② |②---|
口口口① |③---|
口口口口 |----|
39
口②口口 |①---|
口口①口 |----|
口口口口 |②---|
口口口口 |----|
40
口口口口 |①---|
①口口口 |②---|
②口口口 |③---|
③口口口 |----|
41
口口口口 |①---|
口口口口 |----|
口口口口 |②---|
②口口① |----|
42
口口口口 |①---|
口口口口 |----|
口②②口 |②---|
口①①口 |----|
43
口口口口 |①---|
口口口口 |②---|
④③②① |③---|
口口口口 |④---|
44
口口口口 |①---|
②①①② |----|
口口口口 |②---|
口口口口 |----|
45
口口口口 |①---|
口口口口 |----|
口①口口 |②---|
口口②口 |----|
46
口口口③ |①---|
口口口② |②---|
口口口① |③---|
口口口口 |----|
47
口口口口 |①---|
口③①口 |----|
口②口口 |②---|
口口口口 |③---|
48
①口口② |①---|
口口口口 |----|
口口口口 |②---|
口口口口 |----|
49
口①①口 |①---|
口②②口 |②---|
口③③口 |③---|
口④④口 |④---|
50
口口口口 |①---|
①口口② |----|
口口口口 |②---|
口口口口 |----|
51
口①①口 |①---|
口②②口 |②---|
口③③口 |③---|
口④④口 |④---|
52
口口口口 |①---|
口口口口 |----|
①口口② |②---|
口口口口 |----|
53
口④④口 |①---|
口③③口 |②---|
口②②口 |③---|
口①①口 |④---|
54
①口口② |①---|
口口口口 |----|
口口口口 |②---|
口口口口 |----|
55
口①①口 |①---|
口②②口 |②---|
口③③口 |③---|
口④④口 |④---|
56
口口口口 |①---|
口口口口 |----|
①口口② |②---|
口口口口 |----|
57
口口口口 |①---|
口①①口 |----|
口口口口 |----|
口口口口 |----|


不确定度: 0

最終更新:2012年11月16日 18:44