MR.アンディ
UNISON SQUARE GARDEN

ADVANCED

Level: 7
BPM: 121
Notes: 469

1
口口口口 |----|
口口口口 |----|
口口口口 |----|
口口口口 |----|
2
①③②④ |①-②-|
口⑤⑤口 |③-④-|
⑥口口⑥ |--⑤-|
口口口口 |--⑥-|
3
口口口口 |--①-|
③口口③ |--②-|
口④④口 |--③-|
②①①② |④---|
4
口口口口 |①-②-|
⑥口口⑥ |③-④-|
口⑤⑤口 |--⑤-|
④②③① |--⑥-|
5
②①①② |--①-|
口口口口 |--②-|
③④④③ |--③-|
口口口口 |④---|
6
①③②④ |①-②-|
口⑤⑤口 |③-④-|
⑥口口⑥ |--⑤-|
口口口口 |--⑥-|
7
口口口口 |--①-|
口口口口 |--②-|
口口口口
②①①②

口口口口
③口口③
口④口口 |--③-|
口口⑤口 |④-⑤-|
8
口口④口 |①-②-|
口③口口 |③-④-|
口口②口
口①口口

口⑤口口
口口⑥口
口⑦⑧口 |⑤-⑥-|
口口口口 |⑦-⑧-|
9
口口②口 |①-②-|
口口口① |③-④-|
④口口口
口③口口

口⑧⑧口
口口⑦口
口口口⑥ |⑤-⑥-|
口口⑤口 |⑦-⑧-|
10
口口口口 |----|
口口口口 |----|
口口口口 |----|
口①口口 |--①-|
11
口⑤⑤口 |①-②-|
口②口④ |③-④-|
①⑥③口 |⑤---|
口口口口 |--⑥-|
12
口②口口 |①-②-|
①⑤⑤口 |③-④-|
口口口④ |⑤---|
⑥口③口 |--⑥-|
13
口口①③ |①-②-|
口口口口 |③-④-|
④口口口
口②口口

口⑧⑧口
口⑤口⑦
口口⑥口 |⑤-⑥-|
口口口口 |⑦-⑧-|
14
口⑥⑦口 |①-②-|
口⑧⑧口 |③-④-|
口⑤⑤口 |⑤-⑥-|
①②③④ |⑦-⑧-|
15
口口口口 |--①-|
⑤口口⑤ |②-③-|
④②①④ |--④-|
③口口③ |--⑤-|
16
口口口口 |----|
口口口口 |----|
口口①口 |----|
口口口口 |--①-|
17
口口②口 |①-②-|
口口口① |③---|
③口口口
口③口口

⑤口⑥⑥
④⑤口口
口④口口 |④---|
口口口口 |⑤-⑥-|
18
口口口口 |----|
口口口口 |----|
口口口口 |----|
口①口口 |--①-|
19
口⑤⑤口 |①-②-|
口②口④ |③-④-|
①⑥③口 |⑤---|
口口口口 |--⑥-|
20
口②口口 |①-②-|
①⑤⑤口 |③-④-|
口口口④ |⑤---|
口口③⑥ |--⑥-|
21
③①口口 |①-②-|
口口口④ |③-④-|
口口口口
口口②口

口口口口
口⑥口口
⑦口⑤口 |⑤-⑥-|
口⑧⑧口 |⑦-⑧-|
22
④③②① |①-②-|
口⑤口口 |③-④-|
口口⑧口 |⑤-⑥-|
口⑦⑥口 |⑦-⑧-|
23
④口口④ |①-②-|
⑤②③⑤ |③-④-|
⑥①口⑥ |--⑤-|
口口口口 |--⑥-|
24
口口口口 |----|
口口口口 |----|
口口口口 |----|
口口口口 |----|
25
④⑤口口 |①---|
③③③③ |②---|
口②②② |③---|
口口①① |④-⑤-|
26
口口①② |①-②-|
口口③口 |③-④-|
口④⑦口 |⑤---|
⑤⑥口口 |⑥-⑦-|
27
口口③口 |①-②-|
口②口① |③-④-|
④口口④
口口口口

⑥口口⑥
⑤口口⑤
口口口口 |--⑤-|
口口口口 |--⑥-|
28
口口口口 |----|
③口口口 |----|
口②口口 |--①-|
口口①口 |②-③-|
29
④④口③ |①-②-|
口口口② |③-④-|
口口口①
口口口口

口口口口
⑤⑤口口
口口⑦⑥ |⑤---|
口口口口 |⑥-⑦-|
30
口⑤④③ |①-②-|
⑧口口口 |③-④-|
②⑦口口 |⑤-⑥-|
口①⑥口 |⑦-⑧-|
31
③④⑤口 |----|
口口②② |①-②-|
口口①① |--③-|
口口口口 |④-⑤-|
32
口口口口 |--①-|
⑤⑥⑥⑤ |②-③-|
口口口口 |④-⑤-|
④③②① |⑥---|
33
①③②④ |①-②-|
⑤⑥⑥口 |③-④-|
口⑥⑥④ |--⑤-|
⑤口口口 |--⑥-|
34
⑦口口⑦ |--①-|
⑥⑤⑤⑥ |②-③-|
③④④③ |④-⑤-|
②①①② |⑥-⑦-|
35
⑦⑦⑦⑦ |①-②-|
口③⑥⑥ |③-④-|
⑤⑤②口 |⑤-⑥-|
口①④④ |--⑦-|
36
口口口口 |----|
①②③口 |--①-|
⑤口口④ |②-③-|
口口口口 |④-⑤-|
37
③口④④ |①-②-|
口口口② |③-④-|
口口口口
口①①口

口口口口
口⑤口口
口口⑥口 |⑤-⑥-|
⑧⑧口⑦ |⑦-⑧-|
38
口口口口 |--①-|
②②口③ |--②-|
①①口口 |----|
口口口口 |--③-|
39
口①①口 |①-②-|
口口口口 |③-④-|
②口口③
④④口口

⑦口⑧⑧
口⑥口口
口口⑤口 |⑤-⑥-|
口口口口 |⑦-⑧-|
40
口口口口 |①-②-|
口口①① |③-④-|
口口口口
③④②②

口口口口
⑤⑥⑥⑤
口口口口 |--⑤-|
口口口口 |⑥---|
41
口口口⑥ |①-②-|
⑤⑧⑧口 |③-④-|
口⑧⑧⑦ |⑤-⑥-|
④②③① |⑦-⑧-|
42
②①①② |--①-|
③④④③ |②-③-|
⑥⑤⑤⑥ |④-⑤-|
⑦口口⑦ |⑥-⑦-|
43
④④①口 |①-②-|
口②⑤口 |③-④-|
口⑥③口 |--⑤-|
⑦⑦⑦⑦ |⑥-⑦-|
44
①①①① |----|
口口口口 |--①-|
口口口口 |----|
口口②口 |--②-|
45
口口口口 |①-②-|
⑦①②⑦ |③-④-|
⑥⑤④⑥ |⑤-⑥-|
口③口口 |--⑦-|
46
口口口口 |①-②-|
口②③口 |③-④-|
⑧④①⑤ |⑤-⑥-|
口⑦⑥口 |⑦-⑧-|
47
口②③口 |①-②-|
①⑧⑦④ |③-④-|
⑥口口⑤ |⑤-⑥-|
口口口口 |⑦-⑧-|
48
①③②④ |①-②-|
口⑤⑤口 |③-④-|
⑥口口⑥ |--⑤-|
口口口口 |--⑥-|
49
口口口口 |--①-|
③口口③ |--②-|
口④④口 |--③-|
②①①② |④---|
50
口口口口 |①-②-|
⑥口口⑥ |③-④-|
口⑤⑤口 |--⑤-|
④②③① |--⑥-|
51
②①①② |--①-|
口口口口 |--②-|
③④④③ |--③-|
口口口口 |④---|
52
①③②④ |①-②-|
口⑤⑤口 |③-④-|
⑥口口⑥ |--⑤-|
口口口口 |--⑥-|
53
口口口口 |--①-|
口口口口 |--②-|
④③③④ |--③-|
②①①② |④---|
54
口口口口 |①-②-|
⑥口口⑥ |③-④-|
口⑤⑤口 |--⑤-|
④②③① |--⑥-|
55
②①①② |--①-|
口口口口 |--②-|
③④④③ |--③-|
口口口口 |④---|
56
①③②④ |①-②-|
⑤口口口 |③-④-|
口⑥⑥④ |--⑤-|
⑤口口口 |--⑥-|
57
口口口① |①-②-|
口口口② |③-④-|
口口口③ |----|
⑤⑤④④ |⑤---|
58
口口④③ |①-②-|
①②口口 |③-④-|
口口口口
口口口口

⑥⑤口口
⑦⑧口口
口口口口 |⑤-⑥-|
口口口口 |⑦-⑧-|
59
⑤⑥⑦口 |①-②-|
口口①⑧ |③-④-|
口口口口 |⑤-⑥-|
口④③② |⑦-⑧-|
60
口口口口 |①-②-|
口②①口 |③-④-|
口口口口 |⑤-⑥-|
③④⑤⑥ |----|


不确定度: 0

最終更新:2012年11月16日 18:44