MR.アンディ
UNISON SQUARE GARDEN

EXTREME

Level: 8
BPM: 121
Notes: 677

1
口口口口 |----|
口口口口 |----|
口口口口 |----|
口口口口 |----|
2
④②③① |①-②-|
⑥⑥⑥⑥ |③-④-|
⑤⑤⑤⑤ |--⑤-|
②④①③ |--⑥-|
3
①①①① |--①-|
④③③④ |--②-|
②②②② |--③-|
口口口口 |④---|
4
②④③① |①-②-|
⑥⑥⑥⑥ |③-④-|
⑤⑤⑤⑤ |--⑤-|
④②①③ |--⑥-|
5
①①①① |--①-|
④③③④ |--②-|
②②②② |--③-|
口口口口 |④---|
6
④②③① |①-②-|
⑤⑤⑥⑥ |③-④-|
⑥⑥⑤⑤ |--⑤-|
②④①③ |--⑥-|
7
①①①① |--①-|
④③③④ |--②-|
口口口口 |--③-|
⑤②②⑤ |④-⑤-|
8
⑧①②口 |①-②-|
⑥③④⑥ |③-④-|
②⑤⑤① |⑤-⑥-|
⑦④③⑦ |⑦-⑧-|
9
口①⑥⑤ |①-②-|
口⑦②口 |③-④-|
④③⑧⑧ |⑤-⑥-|
口口口口 |⑦-⑧-|
10
⑥口口⑥ |--①-|
口口③口 |--②-|
②口④口 |③-④-|
口①⑤口 |⑤-⑥-|
11
口口口口 |①-②-|
口③口① |③-④-|
口口④② |⑤---|
⑥⑤口⑤ |--⑥-|
12
口③口③ |①-②-|
②⑥④⑥ |③-④-|
①⑤口⑤ |⑤---|
口口口口 |--⑥-|
13
口口口口 |①-②-|
口口口口 |③-④-|
①④③②
口口口口

⑧口⑧口
⑦口口口
⑥口口口 |⑤-⑥-|
口口口⑤ |⑦-⑧-|
14
口口口口 |①-②-|
口口口① |③-④-|
③③口②
④口口口

口⑥⑥口
⑤口口口
口口口⑦ |⑤-⑥-|
口⑧⑧口 |⑦-⑧-|
15
②口②③ |--①-|
口①口口 |②-③-|
口口口口
口口口口

⑦⑦口口
口口④④
口⑤口⑤ |④-⑤-|
⑥口⑥口 |⑥-⑦-|
16
⑧口口① |①-②-|
⑦口口② |③-④-|
口⑥口③ |⑤-⑥-|
⑤口口④ |⑦-⑧-|
17
口⑥口⑥ |①-②-|
口口①口 |③---|
②③④⑤ |④---|
口③④⑤ |⑤-⑥-|
18
③④③④ |----|
②②口口 |①---|
①①①口 |②-③-|
口口口口 |--④-|
19
口口口口 |①-②-|
口③口① |③-④-|
口口④② |⑤---|
⑥⑤口⑤ |--⑥-|
20
③③口③ |①-②-|
②口④口 |③-④-|
①口口口
口口口口

口口口口
⑦⑦口⑦
口⑤口⑤ |⑤-⑥-|
⑥口⑥⑥ |--⑦-|
21
口口口口 |①-②-|
口口口口 |③-④-|
①④③②
口口口口

⑧口口口
⑦口口口
⑥口口口 |⑤-⑥-|
口口口⑤ |⑦-⑧-|
22
口口①口 |①-②-|
口口口⑤ |③-④⑤|
③③③②
④口口口

⑦⑦⑦口
⑥⑥口口
口口口⑧ |⑥-⑦-|
口⑨⑨⑨ |⑧-⑨-|
23
③③③④ |①-②-|
②口口口 |③-④-|
①口口口
口口口口

⑧⑧口口
口口⑤⑤
口⑥⑥⑥ |⑤-⑥-|
⑦⑦⑦⑦ |⑦-⑧-|
24
⑧口口① |①-②-|
⑦口口② |③-④-|
⑥口口③ |⑤-⑥-|
⑤口口④ |⑦-⑧-|
25
口口⑤口 |①②③④|
口④①⑥ |⑤-⑥-|
口③②口
口口口口

口⑨口口
⑧口口口
口口⑨口 |⑦---|
口⑧⑦⑦ |⑧-⑨-|
26
口口口① |①-②-|
口②④③ |③-④-|
口口口口
②口口口

口口⑦⑥
口口口口
口口口口 |⑤---|
口⑤口⑤ |⑥-⑦-|
27
口①口口 |①-②-|
④⑤⑤④ |③-④-|
⑥③口⑥ |--⑤-|
⑥②口⑥ |--⑥-|
28
①口③口 |----|
口②口口 |----|
口①口③ |--①-|
口口②口 |②-③-|
29
口⑦⑦口 |①-②-|
口口口① |③-④-|
②⑥⑥⑤ |⑤---|
④口口③ |⑥-⑦-|
30
口口口口 |①-②-|
口③②① |③-④-|
口口口口
①口③④

口⑧⑦⑥
口口口口
口⑤⑤口 |⑤-⑥-|
⑥⑦⑧口 |⑦-⑧-|
31
口口口口 |----|
②口口① |①-②-|
①④④② |--③-|
⑤③③⑤ |④-⑤-|
32
②③③② |--①-|
⑤①①⑤ |②-③-|
④⑥⑥④ |④-⑤-|
⑤口口⑤ |⑥---|
33
①③④② |①-②-|
⑥⑥⑥⑥ |③-④-|
⑤⑤⑤⑤ |--⑤-|
③①②④ |--⑥-|
34
口口口口 |--①-|
⑦⑥口⑦ |②-③④|
④⑤⑧⑧ |⑤-⑥-|
③口②① |⑦-⑧-|
35
①③②④ |①-②-|
⑦⑦⑦⑦ |③-④-|
⑥⑤⑤⑥ |⑤-⑥-|
③①④② |--⑦-|
36
④②③① |----|
口口口口 |--①-|
⑤口口口 |②-③-|
①③②④ |④-⑤-|
37
口⑥⑦口 |①-②-|
口①①口 |③-④-|
⑧⑧②③ |⑤-⑥-|
口⑤④口 |⑦-⑧-|
38
④口口口 |-①②-|
口③口口 |-③④-|
口口①口
口口口②

口口口口
口口口口
口口口口 |----|
⑤口口⑤ |--⑤-|
39
⑧①②口 |①-②-|
⑥③④⑥ |③-④-|
②⑤⑤① |⑤-⑥-|
⑦④③⑦ |⑦-⑧-|
40
口①口口 |①-②-|
⑤口②⑤ |③-④-|
④⑥⑥④ |--⑤-|
⑤③口⑤ |⑥---|
41
①③④② |①-②-|
口口口口 |③-④-|
口口口口
③①②④

⑧口口⑧
⑦⑦⑦⑦
⑤⑥⑥⑤ |⑤-⑥-|
口口口口 |⑦-⑧-|
42
口口口口 |--①-|
⑥⑤口⑥ |②-③-|
④口⑦⑦ |④-⑤-|
③口②① |⑥-⑦-|
43
①③②④ |①-②-|
⑦⑦⑦⑦ |③-④-|
⑥⑤⑤⑥ |--⑤-|
③①④② |⑥-⑦-|
44
口①①口 |----|
口口口口 |--①-|
口①①口 |----|
口口②② |--②-|
45
⑤⑤⑥⑥ |①-②-|
口①②口 |③-④-|
口⑦④口 |⑤-⑥-|
口③口口 |--⑦-|
46
②口口③ |①-②-|
口口口口 |③-④-|
⑧⑤⑤口 |⑤-⑥-|
④⑦⑥① |⑦-⑧-|
47
口②③口 |①-②-|
①⑧⑦④ |③-④-|
⑥⑥⑤⑤ |⑤-⑥-|
口口口口 |⑦-⑧-|
48
④②③① |①-②-|
⑥⑥⑥⑥ |③-④-|
⑤⑤⑤⑤ |--⑤-|
②④①③ |--⑥-|
49
①①①① |--①-|
④③③④ |--②-|
②②②② |--③-|
口口口口 |④---|
50
②④③① |①-②-|
⑥⑥⑥⑥ |③-④-|
⑤⑤⑤⑤ |--⑤-|
④②①③ |--⑥-|
51
①①①① |--①-|
④③③④ |--②-|
②②②② |--③-|
口口口口 |④---|
52
④②③① |①-②-|
⑤⑤⑥⑥ |③-④-|
⑥⑥⑤⑤ |--⑤-|
②④①③ |--⑥-|
53
①①①① |--①-|
④③③④ |--②-|
口口口口 |--③-|
口②②口 |④---|
54
④②③① |①-②-|
⑥⑥⑥⑥ |③-④-|
⑤⑤⑤⑤ |--⑤-|
②④①③ |--⑥-|
55
①①①① |--①-|
④③③④ |--②-|
②②②② |--③-|
口口口口 |④---|
56
④②③① |①-②-|
⑥⑥⑥⑥ |③-④-|
⑤⑤⑤⑤ |--⑤-|
②④①③ |--⑥-|
57
④口口口 |①-②-|
口口口口 |③-④-|
口口口口
①②③④

口口口口
口口口⑤
口口口口 |----|
⑤口口口 |⑤---|
58
口口④③ |①-②-|
①②口口 |③-④-|
③口口①
口口口口

⑥⑤口口
⑦⑧口口
口口口⑦ |⑤-⑥-|
口口口口 |⑦-⑧-|
59
口口口口 |①-②-|
口口①口 |③-④-|
②口口口
口④③②

⑤⑥⑦口
口口口⑧
⑧口口⑤ |⑤-⑥-|
口口口口 |⑦-⑧-|
60
口口口口 |①-②-|
口②①口 |③-④-|
口口口③ |⑤-⑥-|
③④⑤⑥ |----|


不确定度: 0

最終更新:2012年11月16日 18:44