LOVE YOU
Q;indivi

BASIC

Level: 1
BPM: 134
Notes: 142

1
口口口口 |----|
口口口口 |----|
口口口口 |----|
口口口口 |----|
2
口①口口 |①---|
口②口口 |----|
口口口口 |②---|
口口口口 |----|
3
口口口口 |①---|
口口口口 |----|
口①口口 |----|
口口口口 |----|
4
口口①口 |①---|
口口②口 |----|
口口口口 |②---|
口口口口 |----|
5
口口口口 |①---|
口口口口 |----|
口口①口 |----|
口口口口 |----|
6
口口口口 |①---|
口①②口 |----|
口口口口 |②---|
口口口口 |----|
7
口口口口 |①---|
口口口① |----|
口口②口 |②---|
口口口口 |----|
8
口口口口 |①---|
口口口口 |----|
②①口口 |②---|
口口口口 |----|
9
口口口口 |①---|
①②口口 |----|
口口口口 |②---|
口口口口 |----|
10
口口口口 |①---|
口口①② |----|
口口口口 |②---|
口口口口 |----|
11
口口口口 |①---|
口口口口 |----|
口口口① |----|
口口口口 |----|
12
口口口口 |①---|
口口口② |----|
口①①口 |②---|
口口口口 |----|
13
口口口口 |①---|
口②①口 |----|
口口口口 |②---|
口口口口 |----|
14
口口口口 |①---|
①口口口 |----|
②口口口 |②---|
口口口口 |----|
15
口口口口 |①---|
口口口口 |----|
口①②口 |②---|
口口口口 |----|
16
口口口口 |①---|
口口口口 |----|
口口口① |②---|
口②②口 |----|
17
口口口口 |①---|
口②②口 |----|
口①①口 |②---|
口口口口 |----|
18
口①①口 |①---|
口口口口 |----|
口口口口 |----|
口口口口 |----|
19
口口口口 |①---|
口口口口 |----|
①口口① |----|
口口口口 |----|
20
口口口口 |①---|
口口口口 |----|
口①①口 |----|
口口口口 |----|
21
口口口口 |①---|
①口口① |----|
口口口口 |----|
口口口口 |----|
22
口口口口 |①---|
口①①口 |----|
口口口口 |----|
口口口口 |----|
23
①口口① |①---|
口口口口 |----|
口口口口 |----|
口口口口 |----|
24
口①①口 |①---|
口口口口 |----|
口口口口 |----|
口口口口 |----|
25
口口口口 |①---|
口①①口 |----|
口口口口 |----|
口口口口 |----|
26
口口口口 |①---|
口口口口 |----|
口①①口 |----|
口口口口 |----|
27
口口口口 |----|
口口口口 |----|
口口口口 |①---|
口口①口 |----|
28
口口口口 |①---|
口口口口 |----|
口口口口 |②---|
口②口① |----|
29
口口口口 |①---|
口口口口 |----|
口②口口 |②---|
①口口口 |----|
30
口口口口 |①---|
口口口口 |----|
①口②口 |②---|
口口口口 |----|
31
口口口口 |①---|
口口口② |----|
口口口① |②---|
口口口口 |----|
32
口口口口 |①---|
口②①口 |----|
口口口口 |②---|
口口口口 |----|
33
②口口口 |①---|
①口口口 |----|
口口口口 |②---|
口口口口 |----|
34
口①②口 |①---|
口口口口 |----|
口口口口 |②---|
口口口口 |----|
35
口口口口 |----|
口口①口 |----|
口口口口 |①---|
口口口口 |----|
36
口口口口 |①---|
口②口① |----|
口口口口 |②---|
口口口口 |----|
37
口②口口 |①---|
①口口口 |----|
口口口口 |②---|
口口口口 |----|
38
①口②口 |①---|
口口口口 |----|
口口口口 |②---|
口口口口 |----|
39
口口口① |①---|
口口②口 |----|
口口口口 |②---|
口口口口 |----|
40
口口口口 |①---|
②①口口 |----|
口口口口 |②---|
口口口口 |----|
41
口口口口 |①---|
口口口口 |----|
①②口口 |②---|
口口口口 |----|
42
口口口口 |①---|
口口口口 |----|
口口①② |②---|
口口口口 |----|
43
口口口口 |①---|
口口口① |----|
口口口口 |----|
口口口口 |----|
44
口口口口 |①---|
口②②口 |----|
口①①口 |②---|
口口口口 |----|
45
口①①口 |①---|
口口口口 |----|
口口口口 |----|
口口口口 |----|
46
口口口口 |①---|
②口口② |----|
①口口① |②---|
口口口口 |----|
47
①口口① |①---|
口②②口 |----|
口口口口 |②---|
口口口口 |----|
48
口口口口 |①---|
③口口口 |----|
②①①口 |②---|
口口口口 |③---|
49
①口口口 |①---|
口口口③ |----|
口口口② |②---|
口口口口 |③---|
50
口口口① |①---|
口②②口 |----|
口口口口 |②---|
口口口口 |----|
51
口口口口 |①---|
口口口口 |----|
②①①② |②---|
口口口口 |----|
52
口口口口 |①---|
口口口口 |----|
口②②口 |②---|
口①①口 |----|
53
口口口口 |①---|
口①①口 |----|
口口口口 |----|
口口口口 |----|
54
口口口口 |①---|
口口口口 |----|
②口口② |②---|
①口口① |----|
55
②②②② |①---|
①口口① |----|
口口口口 |②---|
口口口口 |----|
56
口口口口 |①---|
口①①口 |----|
②③口口 |②---|
口口口口 |③---|
57
口口口口 |①---|
口③③口 |②---|
口口①② |③---|
口口口口 |----|
58
口口口口 |①---|
口口口口 |----|
①口口① |②---|
口②③口 |③---|
59
口口口口 |①---|
口②②口 |----|
口①①口 |②---|
口口口口 |----|


不确定度: 0

最終更新:2012年11月16日 18:43