LOVE YOU
Q;indivi

ADVANCED

Level: 4
BPM: 134
Notes: 243

1
口口口口 |----|
口口口口 |----|
口口口口 |----|
口口口口 |----|
2
口口口口 |①---|
口口口口 |----|
①④⑤① |②-③-|
口②③口 |④-⑤-|
3
口口口口 |①---|
口①口口 |----|
口口口口 |----|
口口口口 |----|
4
口口口口 |①---|
口①①口 |----|
④口口⑤ |②-③-|
②口口③ |④-⑤-|
5
口口口口 |①---|
①口口口 |----|
口口口口 |----|
口口口口 |----|
6
口口口口 |①---|
口②①口 |----|
口口③口 |②---|
口口口口 |③---|
7
口口口口 |①---|
口口②口 |----|
口③口口 |②---|
口①口口 |③---|
8
口口口口 |①---|
口口口口 |----|
②口口③ |②---|
口口①口 |③---|
9
口口口口 |①---|
①口口① |----|
口②②口 |②---|
口口口口 |----|
10
口口口口 |①---|
口口口口 |----|
①④⑤① |②-③-|
口②③口 |④-⑤-|
11
口口口口 |①---|
口①口口 |----|
口口口口 |----|
口口口口 |----|
12
口口口口 |①---|
④①①⑤ |----|
②口口③ |②-③-|
口口口口 |④-⑤-|
13
①口口口 |①---|
口②②口 |----|
口口口口 |②---|
口口口口 |----|
14
口口口口 |①---|
口口口口 |----|
①③③① |②---|
口②②口 |③---|
15
口②②口 |①---|
③①①③ |②---|
口口口口 |③---|
口口口口 |----|
16
口口口口 |①---|
口口口口 |----|
③①①③ |②---|
②口口② |③---|
17
口口口口 |①---|
①②②① |----|
口②②口 |②---|
口口口口 |----|
18
⑦口口⑧ |①-②-|
⑤口口⑥ |③-④-|
③口口④ |⑤-⑥-|
①口口② |⑦-⑧-|
19
口①①口 |①---|
口口口口 |----|
口口口口 |----|
口口口口 |----|
20
口④①口 |①-②-|
口口口口 |③-④-|
口②③口 |----|
口口口口 |----|
21
口口口口 |①-②-|
④口口① |③-④-|
口口口口 |----|
②口口③ |----|
22
口口口口 |----|
口④①⑤ |--①-|
口②③口 |②-③-|
口口口口 |④-⑤-|
23
口口口口 |①---|
口口口口 |②-③-|
①口口口 |----|
口②③口 |----|
24
口④①口 |①-②-|
口口口口 |③-④-|
口②③口 |----|
口口口口 |----|
25
④口口① |①-②-|
口口口口 |③-④-|
②口口③ |----|
口口口口 |----|
26
口口口口 |①-②-|
口④①口 |③-④-|
口口口口 |----|
口②③口 |----|
27
口口①① |①---|
②口口口 |----|
口口口③ |②--③|
④口口口 |--④-|
28
口口口口 |①---|
④③①② |--②-|
口口口口 |③---|
口口口口 |--④-|
29
③口口口 |----|
口口口② |----|
①口口口 |①--②|
口口口口 |--③-|
30
④③①② |①---|
口口口口 |--②-|
口口口口 |③---|
口口口口 |--④-|
31
口口口口 |----|
③口口口 |----|
口口口② |①--②|
①口口口 |--③-|
32
口①①口 |①---|
口口③口 |--②-|
口②②口 |----|
口口口口 |③---|
33
口口口口 |①---|
口①口口 |----|
③口口② |②---|
口口口口 |③---|
34
口②②口 |①---|
①口口① |----|
口口口口 |②---|
口口口口 |----|
35
口口口口 |----|
①口口口 |----|
口口口② |①--②|
③口口口 |--③-|
36
口口口口 |①---|
④③①② |--②-|
口口口口 |③---|
口口口口 |--④-|
37
③口口口 |----|
口口口② |----|
①口口口 |①--②|
口口口口 |--③-|
38
④③①② |①---|
口口口口 |--②-|
口口口口 |③---|
口口口口 |--④-|
39
口口口口 |----|
③口口口 |----|
口口口② |①--②|
①口口口 |--③-|
40
口①①口 |①---|
口口③口 |--②-|
口②②口 |----|
口口口口 |③---|
41
口口口口 |①---|
②①口② |----|
口口口口 |②---|
口口口口 |----|
42
口口口口 |①---|
口口口口 |----|
①口口① |②---|
口②②口 |----|
43
口口口口 |①---|
口口口口 |----|
口②②口 |②---|
①口口① |----|
44
口口口口 |①---|
口口口口 |----|
①④⑤① |②-③-|
口②③口 |④-⑤-|
45
口口口口 |①---|
口①口口 |----|
口口口口 |----|
口口口口 |----|
46
口口口口 |①---|
口口口口 |----|
④①①⑤ |②-③-|
②口口③ |④-⑤-|
47
口口口口 |①---|
①口口口 |----|
口②②口 |②---|
口口口口 |----|
48
口口口口 |①---|
口②①口 |----|
口口③口 |②---|
口口口口 |③---|
49
口口口口 |①---|
口口②口 |----|
口③口口 |②---|
口①口口 |③---|
50
口口口口 |①---|
口口口口 |----|
②口口③ |②---|
口口①口 |③---|
51
口口口口 |①---|
①口口① |----|
口②②口 |②---|
口口口口 |----|
52
口口口口 |①---|
口口口口 |----|
①④⑤① |②-③-|
口②③口 |④-⑤-|
53
口口口口 |①---|
口①口口 |----|
②口口② |----|
口口口口 |②---|
54
口口口口 |①---|
③①①③ |----|
②口口② |②---|
口口口口 |③---|
55
①①①① |①---|
口②②口 |----|
口口口口 |②---|
口口口口 |----|
56
口口口口 |①---|
口口口口 |----|
①③③① |②---|
口②②口 |③---|
57
口②②口 |①---|
③①①③ |②---|
口口口口 |③---|
口口口口 |----|
58
口口口口 |①---|
口口口口 |----|
③①①③ |②---|
②口口② |③---|
59
口口口口 |①---|
①②②① |----|
口②②口 |②---|
口口口口 |----|


不确定度: 0

最終更新:2012年11月16日 18:43