LOVE YOU
Q;indivi

EXTREME

Level: 6
BPM: 134
Notes: 380

1
口口口口 |----|
口口口口 |----|
口口口口 |----|
口口口口 |----|
2
①口①口 |①---|
①①①口 |----|
①口①口
口口口口

口口口口
口口口口
口④⑤口 |②-③-|
口②③口 |④-⑤-|
3
口①①口 |①---|
口口口口 |----|
口口口口 |----|
口口口口 |----|
4
口口口口 |①---|
口①口① |----|
口①①①
口口①口

口口口口
口口口口
④口口⑤ |②-③-|
②口口③ |④-⑤-|
5
①口口① |①---|
口口口口 |----|
口口口口 |----|
口口口口 |----|
6
口口口口 |①---|
口①①① |----|
口口①口
口口口口

②②口口
③③口口
口口口口 |②---|
口口口口 |③---|
7
口口②② |①---|
口口③③ |----|
①①口口 |②---|
口口口口 |③---|
8
口口口口 |①---|
口口口口 |----|
口口①①
口口口口

口口口口
口③②口
口②③口 |②---|
口口口口 |③---|
9
①口口① |①---|
①口口① |----|
②口口② |②---|
②口口② |----|
10
口口口口 |①---|
①口口① |----|
④①①⑤ |②-③-|
②口口③ |④-⑤-|
11
①口口① |①---|
口口口口 |----|
口口口口 |----|
口口口口 |----|
12
口口口口 |①---|
口①①口 |----|
④①①⑤ |②-③-|
②口口③ |④-⑤-|
13
①口口① |①---|
口口口口 |----|
口口口口 |②---|
②口口② |----|
14
口口③口 |①---|
口③①① |----|
①①②口 |②---|
口②口口 |③---|
15
②②口口 |①---|
③③口口 |②---|
③①③① |③---|
③③①口 |----|
16
②①①② |①---|
③口口口 |----|
③口口口 |②---|
③口口口 |③---|
17
口②口② |①---|
口①②口 |----|
口①②口 |②---|
口①①口 |----|
18
口口口口 |①-②-|
⑦⑧⑨⑩ |③-④-|
③⑤⑥④ |⑤-⑥-|
①口口② |⑦⑧⑨⑩|
19
①①①① |①---|
口口口口 |②---|
口口口口 |③---|
口②③④ |④---|
20
①②口口 |①-②-|
口③④口 |③-④-|
⑥⑤③① |⑤---|
口口口口 |⑥---|
21
口口②① |①-②-|
口④③口 |③-④-|
口口口口 |⑤---|
①③⑤⑥ |⑥---|
22
口口口③ |①---|
口口口口 |②-③-|
口口②①
口口口口

口口④口
口口⑥⑤
⑥④口⑦ |④-⑤-|
口口口口 |⑥-⑦-|
23
口③②口 |①---|
口口口口 |②-③-|
口口①口 |④---|
①②④⑤ |⑤---|
24
①②口口 |①-②-|
口③④口 |③-④-|
⑥⑤③① |⑤---|
口口口口 |⑥---|
25
口口②① |①-②-|
口④③口 |③-④-|
口口口口 |⑤---|
①③⑤⑥ |⑥---|
26
①②口口 |①-②-|
口③④口 |③-④-|
⑥⑤③① |⑤---|
口口口口 |⑥---|
27
口口口口 |①---|
④口口口 |----|
②口口③ |②--③|
①口口口 |--④-|
28
口口①① |①---|
口口②② |--②-|
③③口口 |③---|
④④口口 |--④-|
29
口口口口 |----|
口口口口 |----|
③口口口 |①--②|
①口口② |--③-|
30
口口②① |①---|
口口②① |--②-|
④③口口 |③---|
④③口口 |--④-|
31
口口口口 |----|
③③口口 |----|
口口②② |①--②|
①①口口 |--③-|
32
①①①① |①---|
口口②② |--②-|
口口口口 |----|
口口③口 |③---|
33
口口口口 |①---|
③口口② |----|
口口口口 |②---|
口①口口 |③---|
34
口口口口 |①---|
口口口口 |----|
②①①② |②---|
口②②口 |----|
35
口口口口 |----|
③口口口 |----|
①口口② |①--②|
口口口口 |--③-|
36
口口①① |①---|
口口②② |--②-|
③③口口 |③---|
④④口口 |--④-|
37
口口口口 |----|
口口口口 |----|
③口口口 |①--②|
①口口② |--③-|
38
口口②① |①---|
口口②① |--②-|
④③口口 |③---|
④③口口 |--④-|
39
口口口口 |----|
③③口口 |----|
口口②② |①--②|
①①口口 |--③-|
40
①①①① |①---|
③③②② |--②-|
口口口口 |----|
口口口口 |③---|
41
口口口口 |①---|
口口口口 |----|
②口①口 |②---|
口②①口 |----|
42
口口口口 |①---|
②口②① |----|
口②①口 |②---|
口②口口 |----|
43
口口口口 |①--②|
口口口① |--③-|
口口②口 |④---|
④④③口 |----|
44
口口口口 |①---|
口①口① |----|
口①①①
口口①口

口口口口
口口口口
口④⑤口 |②-③-|
口②③口 |④-⑤-|
45
口①①口 |①---|
口口口口 |----|
口口口口 |----|
口口口口 |----|
46
口口口口 |①---|
口①①① |----|
口口①口
口口口口

②口口③
④口口⑤
口口口口 |②-③-|
口口口口 |④-⑤-|
47
口口口口 |①---|
口口口口 |----|
口①①口 |②---|
口②②口 |----|
48
②②口口 |①---|
③③口① |----|
口口①口 |②---|
口口口口 |③---|
49
口口②② |①---|
口口③③ |----|
①①口口 |②---|
口口口口 |③---|
50
口口口口 |①---|
口口口口 |----|
口口①①
口口口口

口口口口
口③②口
口②③口 |②---|
口口口口 |③---|
51
①口口① |①---|
①口口① |----|
②口口② |②---|
②口口② |----|
52
口口口口 |①---|
口①口口 |----|
④①口⑤ |②-③-|
②①口③ |④-⑤-|
53
①口口① |①---|
口口口口 |----|
口口口口 |----|
口②②口 |②---|
54
口口口口 |①---|
①口口① |----|
口②②口 |②---|
③口口③ |③---|
55
①②②① |①---|
②①①② |----|
口口口口 |②---|
口口口口 |----|
56
口口口口 |①---|
②②口口 |----|
口口③③ |②---|
①口口① |③---|
57
③口口③ |①---|
口口②② |②---|
①①口口 |③---|
口口口口 |----|
58
②①①② |①---|
③口口口 |----|
③口口口 |②---|
③口口口 |③---|
59
口②口② |①---|
口①②口 |----|
口①②口 |②---|
口①①口 |----|


不确定度: 0

最終更新:2012年11月16日 18:43