Just Awake
Fear,and Loathing in Las Vegas

EXTREME

Level: 10
BPM: 191
Notes: 807

1
口口口口 |----|
口口口口 |----|
口口口口 |----|
口口口口 |----|
2
③②⑤口 |①-②-|
口口口口 |③---|
口口口口 |④-⑤-|
⑥①④⑥ |--⑥-|
3
④③口口 |--①-|
①口口① |--②-|
口口口口 |③-④-|
口②口口 |----|
4
口⑤②③ |①-②-|
⑥口口⑥ |③---|
口口口口 |④-⑤-|
口④①口 |--⑥-|
5
口④③口 |--①-|
口口口口 |--②-|
口⑤⑤口 |③-④-|
①口②① |--⑤-|
6
①⑦⑥① |①---|
口⑨⑧口 |②③④⑤|
③⑪⑩② |⑥⑦⑧⑨|
⑤⑬⑫④ |⑩⑪⑫⑬|
7
②⑩⑨① |①②③④|
④⑫⑪③ |⑤⑥⑦⑧|
⑥⑭⑬⑤ |⑨⑩⑪⑫|
⑧⑯⑮⑦ |⑬⑭⑮⑯|
8
⑤⑨⑧⑤ |①②③④|
②⑪⑩① |⑤-⑥⑦|
④⑮⑭③ |⑧⑨⑩⑪|
⑦⑬⑫⑥ |⑫⑬⑭⑮|
9
⑤⑥口⑤ |①②③④|
②⑦口① |⑤---|
④口⑧③ |--⑥-|
口口口口 |⑦-⑧-|
10
口口①⑥ |①-②-|
③⑦口② |③-④-|
⑤口口④ |⑤-⑥-|
口⑨口⑧ |⑦-⑧⑨|
11
⑤口⑥口 |①-②-|
③口④口 |③-④-|
⑦口②⑧ |⑤-⑥-|
①口口口 |⑦-⑧-|
12
⑦口口⑥ |①-②-|
⑤口口④ |③-④-|
口③口⑧ |⑤-⑥-|
①口口② |⑦-⑧-|
13
口⑥口口 |--①-|
口⑤口口 |②-③-|
④①口口 |④-⑤-|
③②口口 |⑥---|
14
口口①⑥ |①-②-|
③⑦口② |③-④-|
⑤口口④ |⑤-⑥-|
口⑨口⑧ |⑦-⑧⑨|
15
⑤⑧⑥口 |①-②-|
③口④口 |③-④-|
⑦口②口 |⑤-⑥-|
①口口口 |⑦-⑧-|
16
口口口① |--①-|
口口④② |②-③-|
口口⑤③ |④-⑤-|
口口口⑥ |--⑥-|
17
口⑥口口 |--①-|
③⑤口口 |②-③-|
②④口口 |④-⑤-|
①口口口 |⑥---|
18
口口口口 |①②③-|
口⑦⑥⑤ |--④-|
④口口口 |--⑤⑥|
口③②① |⑦---|
19
口口⑪⑤ |①②③④|
⑩⑨口⑧ |⑤-⑥-|
口⑦口⑥ |⑦-⑧⑨|
④③②① |⑩-⑪-|
20
②⑧口⑤ |①②③④|
口口①口 |⑤⑥⑦⑧|
⑥口口⑦
口④口③

口口⑬口
口⑩⑭⑪
口⑮⑨口 |⑨⑩⑪⑫|
⑫口口口 |⑬-⑭⑮|
21
②口口③ |①-②-|
④口口⑤ |③-④-|
⑥口口⑦ |⑤-⑥-|
⑧⑧①口 |⑦-⑧-|
22
口①②③ |--①②|
⑥口口⑥ |③---|
口④④口 |④---|
⑤口口⑤ |⑤-⑥-|
23
①口②口 |--①-|
口③口④ |--②-|
①口②口 |--③-|
口口口口 |--④-|
24
口⑤④口 |--①②|
口⑦⑥口 |③---|
③②⑧① |④⑤⑥⑦|
口⑩⑨口 |⑧-⑨⑩|
25
②⑩⑨① |①②③④|
⑥⑫⑪⑤ |⑤⑥⑦⑧|
④⑭⑬③ |⑨⑩⑪⑫|
⑧⑯⑮⑦ |⑬⑭⑮⑯|
26
②口④③ |①---|
⑥口⑧⑦ |②③④-|
⑤口口① |⑤---|
口口口口 |⑥⑦⑧-|
27
口④口口 |①-②-|
口口⑦口 |③-④-|
⑥口口⑤ |⑤-⑥-|
②口③① |--⑦-|
28
②口④③ |①---|
⑥①⑧⑦ |②③④-|
⑤口口口 |⑤---|
口口口口 |⑥⑦⑧-|
29
口⑧⑧口 |①-②-|
⑥口口⑦ |③-④-|
④口⑤口 |⑤-⑥-|
②口③① |⑦-⑧-|
30
口⑩⑪口 |--①②|
口⑦⑧⑨ |③-④⑤|
口④⑤⑥ |⑥-⑦⑧|
口①②③ |⑨-⑩⑪|
31
口口口① |①-②③|
⑪⑧⑨⑩ |④-⑤⑥|
⑪⑤⑥⑦ |⑦-⑧⑨|
口②③④ |⑩-⑪-|
32
口⑩⑪口 |--①②|
口⑦⑧⑨ |③-④⑤|
口④⑤⑥ |⑥-⑦⑧|
口①②③ |⑨-⑩⑪|
33
⑯⑮⑭⑬ |①②③④|
⑨⑩⑪⑫ |⑤⑥⑦⑧|
⑤⑥⑦⑧ |⑨⑩⑪⑫|
①②③④ |⑬⑭⑮⑯|
34
口口口口 |①---|
⑧⑦⑥口 |②③④-|
④③②⑤ |⑤---|
口①①口 |⑥⑦⑧-|
35
口④③② |①-②③|
口口口① |④-⑤-|
口⑦⑧口 |⑥-⑦-|
口⑤⑥口 |⑧---|
36
②⑤⑥③ |①---|
④①①⑦ |②-③-|
②口口③ |④-⑤⑥|
④⑧⑧口 |⑦-⑧-|
37
⑨⑭⑭⑩ |①②③④|
⑪①②⑫ |⑤⑥⑦⑧|
⑤③④⑥ |⑨⑩⑪⑫|
⑦⑬⑬⑧ |⑬-⑭-|
38
口口口③ |--①-|
口口④口 |②---|
口口①② |③-④-|
口⑤⑤口 |⑤---|
39
口①①口 |①-②-|
口口口口 |③---|
口口②口
口口口③

口⑦⑦口
口④④口
口口口⑥ |④-⑤-|
口口⑤口 |⑥-⑦-|
40
口⑤⑤④ |--①-|
口口③口 |②---|
口⑥①口 |③-④-|
口口口② |⑤-⑥-|
41
口⑧⑦口 |①②③④|
②⑩⑨① |⑤---|
④⑫⑪③ |⑥-⑦⑧|
⑥口口⑤ |⑨⑩⑪⑫|
42
⑥⑥口③ |①-②-|
②⑧口⑦ |③-④-|
②⑧口口 |⑤-⑥-|
④④①⑤ |⑦-⑧-|
43
口口①② |--①-|
④口口④ |②---|
口口口口 |③---|
③口口③ |④---|
44
②②①口 |①-②-|
⑦④③口 |③-④-|
⑦④⑤口 |⑤-⑥-|
⑥⑥口口 |--⑦-|
45
⑤口口⑤ |--①-|
口④④① |--②-|
口②②① |③-④-|
口口③口 |--⑤-|
46
口口口口 |--①-|
口口④③ |②---|
口⑤⑤① |③-④-|
口口口② |⑤---|
47
口①①口 |①-②-|
口口口口 |③---|
口口口口
口口②③

④⑦⑦④
口口⑤口
口口⑥口 |④-⑤-|
口口口口 |⑥-⑦-|
48
口⑤⑤口 |--①-|
口口③口 |②---|
口口④口 |③-④-|
口口①② |⑤---|
49
口⑧⑦口 |①②③④|
②⑩⑨① |⑤---|
④⑫⑪③ |⑥-⑦⑧|
⑥口口⑤ |⑨⑩⑪⑫|
50
⑥⑥口③ |①-②-|
②⑧口⑦ |③-④-|
②⑧口口 |⑤-⑥-|
④④①⑤ |⑦-⑧-|
51
口口①② |--①-|
④口口④ |②---|
口口口口 |③---|
③口口③ |④---|
52
②②②② |①---|
口口口口 |--②-|
①①①① |----|
③③③③ |③---|
53
⑤⑤口⑥ |①-②-|
③②①口 |③-④-|
⑦⑦口④ |⑤-⑥-|
口口口口 |⑦---|
54
口⑤①口 |①-②-|
⑦⑥②③ |③-④-|
口⑧④口 |⑤-⑥-|
口口口口 |⑦-⑧-|
55
口口口口 |①-②-|
⑧口口④ |③-④-|
⑦口口③ |⑤-⑥-|
⑥⑤①② |⑦-⑧-|
56
口⑤①口 |①-②-|
⑦⑥②③ |③-④-|
口⑧④口 |⑤-⑥-|
口口口口 |⑦-⑧-|
57
口口口口 |①-②-|
⑧口口④ |③-④-|
⑦口口③ |⑤-⑥-|
⑥⑤①② |⑦-⑧-|
58
口⑤①口 |①-②-|
⑦⑥②③ |③-④-|
口⑧④口 |⑤-⑥-|
口口口口 |⑦-⑧-|
59
口⑦口⑤ |①-②-|
口⑧⑥口 |③-④-|
④口⑨③ |⑤-⑥-⑦-|
②⑩口① |⑧-⑨-⑩-|
60
②口口口 |①---|
口口口① |----|
口口口口 |②---|
口口口① |----|
61
口口口① |①---|
②⑤④③ |--②③|
口⑤④口 |④-⑤-|
口口口口 |----|
62
①②③④ |①-②-|
口口口⑤ |③-④-|
口口口⑥ |⑤-⑥-|
口口⑧⑦ |⑦-⑧-|
63
⑤⑥⑦⑧ |①-②-|
④口口口 |③-④-|
③口口口 |⑤-⑥-|
②①口口 |⑦-⑧-|
64
口口口口 |--①-|
口口②① |②-③-|
⑦④③② |④-⑤-|
⑥⑤④③ |⑥-⑦-|
65
②③④⑤ |①-②-|
①①口⑥ |③-④-|
口口口⑦ |⑤-⑥-|
口口口⑧ |⑦-⑧-|
66
⑥⑦⑧口 |①-②-|
⑤⑤⑦口 |③-④-|
④③口口 |⑤-⑥-|
③②①口 |⑦-⑧-|
67
口口口① |①-②-|
口④口② |③-④-|
⑧③①③ |⑤-⑥-|
⑦⑥⑤④ |⑦-⑧-|
68
②口④③ |①-②-|
①⑫⑥⑤ |③④⑤⑥|
口口⑩⑨ |⑦⑧⑨⑩|
口⑪⑧⑦ |⑪-⑫-|
69
①④⑭⑬ |①②③-|
②口⑫⑪ |④-⑤⑥|
③⑥⑩⑨ |⑦⑧⑨⑩|
⑤口⑧⑦ |⑪⑫⑬⑭|
70
②④口口 |①-②-|
③①⑥⑥ |--③-|
②④口口 |④---|
③①⑤⑤ |⑤-⑥-|
71
⑤⑤口口 |--①-|
口口口口 |②-③-|
口③②① |④---|
④④口口 |⑤---|
72
口口④② |①-②-|
⑥⑥①③ |--③-|
口口④② |④---|
⑤⑤①③ |⑤-⑥-|
73
③②②③ |--①-|
口④④口 |--②-|
①口口① |③---|
口④④口 |④---|
74
③③③③ |①---|
①口口① |--②-|
②②②② |----|
①口口① |③---|
75
口口口口 |--①-|
②③口口 |----|
②③口口 |②---|
口①①口 |③---|
76
口口②① |①②③④|
口口④③ |⑤⑥⑦⑧|
口口⑥⑤
口口⑧⑦

⑩⑨口⑭
⑫⑪口口
口口口口 |⑨⑩⑪⑫|
⑬口口口 |⑬-⑭-|
77
口④③口 |--①-|
⑥口①⑤ |②-③-|
①④③② |④-⑤-|
⑥②口⑤ |⑥---|
78
口口④② |①---|
口①①⑤ |②-③-|
③口④② |④---|
口口口⑤ |⑤---|
79
④⑦口口 |①-②-|
②口口口 |③-④-|
④口⑤③ |⑤-⑥-|
②⑥①口 |⑦---|
80
口口④② |①---|
口①①⑤ |②-③-|
③口④② |④---|
口口口⑤ |⑤---|
81
④⑦口口 |①-②-|
②口口口 |③-④-|
④口⑤③ |⑤-⑥-|
②⑥①口 |⑦---|
82
口口④② |①---|
口①①⑤ |②-③-|
③口④② |④---|
口口口⑤ |⑤---|
83
④⑦口口 |①-②-|
②口口口 |③-④-|
④口⑤③ |⑤-⑥-|
②⑥①口 |⑦---|
84
口口④口 |①---|
口①①② |②-③-|
口③④口 |④---|
口⑤⑤② |⑤---|
85
②⑭⑬① |①②③④|
④⑩⑨③ |⑤⑥⑦⑧|
⑥⑫⑪⑤ |⑨⑩⑪⑫|
⑧⑯⑮⑦ |⑬⑭⑮⑯|
86
①口口① |①---|
口口口口 |----|
口口口口 |----|
口口口口 |----|

不確定度: 0

タグ:

+ タグ編集
  • タグ:

このサイトはreCAPTCHAによって保護されており、Googleの プライバシーポリシー利用規約 が適用されます。

最終更新:2014年08月01日 00:29