紅空
lecca

ADVANCED

Level: 5
BPM: 143
Notes: 392

1
口口口口 |----|
口口口口 |----|
口口口口 |----|
口口口口 |----|
2
口①②口 |①---|
口口口口 |--②-|
③④⑤口 |--③-|
口口口口 |④-⑤-|
3
口①口口 |①---|
口口口口 |----|
口口口口 |----|
口口②口 |②---|
4
口①②口 |①---|
口口口口 |--②-|
③口④口 |--③-|
口口口口 |--④-|
5
口口口口 |①---|
口口口口 |----|
口口口① |----|
口②口口 |--②-|
6
口口口② |①---|
口①口③ |②-③-|
口口口口 |----|
口口④口 |--④-|
7
②口口口 |①---|
③口①口 |②-③-|
口口口口 |----|
口④口口 |--④-|
8
⑤口口② |①---|
⑥①口③ |②-③-|
口口口口 |--④-|
口口口④ |⑤-⑥-|
9
口口口口 |①---|
口口③② |②-③-|
①口口口 |--④-|
口⑤④口 |--⑤-|
10
口口口② |①---|
口①口③ |②-③-|
口口口口 |----|
口口④口 |--④-|
11
②④口口 |①---|
③⑤①口 |②-③-|
口口⑥口 |--④-|
口口口口 |⑤---⑥-|
12
口口②口 |--①---|
口口③口 |----|
口口④口 |--②-|
口口①口 |③-④-|
13
口口口口 |①---|
口口口口 |----|
口口口口 |②---|
①口口② |----|
14
④①口② |①---|
③②口口 |②---|
①口口③ |③---|
口口口④ |④---|
15
④①口② |①---|
③②口口 |②---|
①口口③ |③---|
口口口④ |④---|
16
口④口口 |①---|
③口③口 |②---|
口②口口 |③---|
①口①口 |④---|
17
①口①口 |①---|
口②口口 |②---|
③口③口 |③---|
口④口口 |④---|
18
④③口④ |①---|
口口③② |②---|
口①②口 |③---|
口口①口 |④---|
19
③口口③ |①---|
口口口口 |②---|
口②②口 |----|
口①①口 |③---|
20
③口口③ |①---|
口口口口 |--②-|
口①①口 |----|
口②②口 |③---|
21
口口②口 |①---|
口口口口 |--②-|
口①①口
口口口口

口口口口
口③口口
口口④口 |--③-|
口口口口 |④---|
22
口①②口 |①---|
①口口② |----|
②口口① |②---|
口②①口 |----|
23
口口②口 |①---|
口①口② |----|
②口①口 |②---|
口②口口 |----|
24
口②口口 |①---|
②口①口 |----|
口①口② |②---|
口口②口 |----|
25
②口口② |①---|
口口口口 |----|
口①①口 |②---|
口口口口 |----|
26
口口②口 |①---|
口①口② |----|
②口①口 |②---|
口②口口 |----|
27
口②口口 |①---|
②口①口 |----|
口①口② |②---|
口口②口 |----|
28
①口口④ |①---|
②口口③ |②---|
③口口② |③---|
④口口① |④---|
29
口口口口 |①---|
②②②② |----|
口①①口 |②---|
口口口口 |----|
30
口口口口 |①---|
口口口口 |②---|
口③口④ |③---|
①口②口 |④---|
31
①②③口 |①-②-|
口口④口 |③-④-|
口口⑤口 |⑤-⑥-|
口口⑥⑦ |⑦---|
32
口②口① |①---|
④口③口 |②---|
口口口口 |③---|
口口口口 |④---|
33
⑦⑥口口 |①-②-|
口⑤口口 |③-④-|
口④口口 |⑤-⑥-|
口③②① |⑦---|
34
口口口口 |①---|
口口口口 |②---|
口③口④ |③---|
①口②口 |④---|
35
①②③口 |①-②-|
口口④口 |③-④-|
口口⑤口 |⑤-⑥-|
口口⑥⑦ |⑦---|
36
口②口① |①---|
④口③口 |②---|
口口口口 |③---|
口口口口 |④---|
37
⑦⑥口口 |①-②-|
口⑤口口 |③-④-|
口④口口 |⑤-⑥-|
口③②① |⑦---|
38
口口口口 |①---|
口口口口 |②---|
①③②④ |③---|
口口口口 |④---|
39
⑦口口口 |①-②-|
①②③④ |③-④-|
口⑥⑤口 |⑤-⑥-|
口口口口 |⑦---|
40
口口口口 |①---|
口口口口 |②---|
口口口口 |③---|
④②③① |④---|
41
口口口口 |①-②-|
④③②① |③-④-|
口⑤⑥口 |⑤-⑥-|
口口口⑦ |⑦---|
42
①③②④ |①---|
口口口口 |②---|
口口口口 |③---|
口口口口 |④---|
43
口口口口 |①---|
①③②④ |②---|
口口口口 |③---|
口口口口 |④---|
44
①③②④ |①---|
口口口口 |②---|
口口口口 |③---|
口口口口 |④---|
45
口口口口 |①---|
①③②④ |②---|
口口口口 |③---|
口口口口 |④---|
46
口口口口 |①---|
口口口口 |----|
②②②② |②---|
①①①① |----|
47
②②②② |①---|
①①①① |----|
口口口口 |②---|
口口口口 |----|
48
口③③口 |①---|
口②②口 |----|
口口口口 |②---|
口①①口 |③---|
49
①口口① |①---|
口口口口 |----|
口②②口 |②---|
口口口口 |----|
50
口口口口 |①---|
口口口口 |----|
②②②② |②---|
①①①① |----|
51
②②②② |①---|
①①①① |----|
口口口口 |②---|
口口口口 |----|
52
口③③口 |①---|
口②②口 |----|
口口口口 |②---|
口①①口 |③---|
53
①口口① |①---|
②口口② |②---|
口③③口 |③---|
口④④口 |④---|
54
④①口② |①---|
③②口口 |②---|
①口口③ |③---|
口口口④ |④---|
55
④①口② |①---|
③②口口 |②---|
①口口③ |③---|
口口口④ |④---|
56
口④口口 |①---|
③口③口 |②---|
口②口口 |③---|
①口①口 |④---|
57
①口①口 |①---|
口②口口 |②---|
③口③口 |③---|
口④口口 |④---|
58
④③口④ |①---|
口口③② |②---|
口①②口 |③---|
口口①口 |④---|
59
③口口③ |①---|
口口口口 |②---|
口②②口 |----|
口①①口 |③---|
60
③口口③ |①---|
口口口口 |--②-|
口①①口 |----|
口②②口 |③---|
61
口口②口 |①---|
口口口口 |--②-|
口①①口
口口口口

口口口口
口③口口
口口④口 |--③-|
口口口口 |④---|
62
口①②口 |①---|
①口口② |----|
②口口① |②---|
口②①口 |----|
63
口口②口 |①---|
口①口② |----|
②口①口 |②---|
口②口口 |----|
64
口②口口 |①---|
②口①口 |----|
口①口② |②---|
口口②口 |----|
65
②口口② |①---|
口口口口 |----|
口①①口 |②---|
口口口口 |----|
66
口口②口 |①---|
口①口② |----|
②口①口 |②---|
口②口口 |----|
67
口②口口 |①---|
②口①口 |----|
口①口② |②---|
口口②口 |----|
68
①口口④ |①---|
②口口③ |②---|
③口口② |③---|
④口口① |④---|
69
口口口口 |①---|
②②②② |----|
口①①口 |②---|
口口口口 |----|


不确定度: 0

最終更新:2012年11月16日 18:42