紅空
lecca

EXTREME

Level: 8
BPM: 143
Notes: 678

1
口口口口 |----|
口口口口 |----|
口口口口 |----|
口口口口 |----|
2
口①①口 |①---|
口口⑥口 |②-③-|
②③③⑤ |--④-|
口口④口 |⑤-⑥-|
3
口①①口 |①---|
口口口② |②---|
口口③口 |③---|
口④④口 |④---|
4
口口④口 |①---|
①③口① |--②-|
口口②口 |--③-|
口口口口 |--④-|
5
口口口口 |①---|
①口②① |②-③-|
口③口口 |----|
④口口口 |--④-|
6
口口①③ |①---|
口口口口 |②-③-|
口口②口 |----|
口口口④ |--④-|
7
③口①口 |①---|
口口口口 |②-③-|
口②口口 |----|
口④口口 |--④-|
8
口①口⑥ |①---|
口口③口 |②-③-|
口口②⑤ |--④-|
口口口④ |⑤-⑥-|
9
③口口口 |①---|
口口口① |②-③-|
④口口口 |--④-|
⑤②口口 |--⑤-|
10
口口①③ |①---|
口口口口 |②-③-|
口口②口 |----|
口口口④ |--④-|
11
③口①口 |①---|
口口口口 |②-③-|
口②口口
口口口口

口口口口
口④⑤口
口⑥口口 |--④-|
口口口口 |⑤---⑥-|
12
口口口口 |--①---|
④口口口 |----|
口口①③ |--②-|
②口口口 |③-④-|
13
口口口① |①---|
口口口口 |----|
口口口口 |②---|
③②②口 |--③-|
14
①①口② |①--②|
口口④口 |③-④-|
③③口口
口口口口

⑦⑦⑧口
⑥口口口
口口⑤⑤ |⑤-⑥-|
口口口口 |⑦-⑧-|
15
口④④口 |①---|
口①口① |②---|
③③口口 |③---|
②②口口 |④---|
16
口口⑤⑤ |①---|
口①口① |②-③-|
④④②② |④---|
口③口口 |⑤---|
17
口口口口 |①---|
②②口③ |②-③-|
口口①①
口口口口

口口口口
口口口口
⑤⑥⑦⑥ |④-⑤-|
口口④④ |⑥-⑦-|
18
①①⑦口 |①---|
⑥③⑥口 |②-③-|
④④口口 |④-⑤-|
②②⑤口 |⑥-⑦-|
19
①①口口 |①---|
口②口② |②---|
口口口口
口口口口

口④④口
口口口口
③③口口 |③---|
口口口口 |④---|
20
口⑤⑤口 |①---|
口①口① |②-③-|
④④②② |④---|
口口③口 |⑤---|
21
口口口口 |①---|
③口④④ |②-③-|
⑥⑦⑥⑤ |④-⑤-|
①①②② |⑥-⑦-|
22
⑤⑤口③ |①---|
②②④④ |②-③-|
口口口口 |④---|
①①口口 |⑤---|
23
④④口③ |①---|
⑤⑤⑥口 |②-③-|
②②①① |④---|
口口口口 |⑤-⑥-|
24
口口口口 |①---|
④④口口 |②-③-|
②②①① |④---|
⑤⑤口③ |⑤---|
25
①口口① |①---|
口③口口 |②-③-|
④④⑤⑤ |④---|
口口②② |⑤---|
26
①①口口 |①---|
口口②② |②-③-|
口③口口
口口口口

⑤⑤口口
口口口口
口口口口 |④---|
口口④④ |⑤---|
27
口口口口 |①---|
④④①① |②-③-|
②②⑤③ |④-⑤-|
⑥⑥口口 |⑥---|
28
②①①③ |①-②-|
口④⑤口 |③-④-|
⑥口口⑦ |⑤-⑥-|
口⑧口口 |⑦-⑧-|
29
口②口口 |①---|
口③口口 |②-③-|
口口口口
口口①口

口口口口
口口④口
口口⑤口 |--④-|
口口⑥口 |⑤-⑥-|
30
①⑩口② |--①②|
口③口④ |③-④-|
口⑤⑥口 |⑤⑥-⑦|
⑨⑦⑧口 |⑧-⑨⑩|
31
⑥口①⑦ |①②③④|
口②③口 |⑤-⑥⑦|
口④⑤口
口口口口

口口口口
口⑩口口
口口口⑨ |⑧-⑨-|
口⑧口口 |⑩---|
32
⑩②①⑪ |--①②|
④口⑤③ |③④⑤-|
⑥⑦口口 |⑥⑦-⑧|
口口⑨⑧ |⑨-⑩⑪|
33
口①②口 |①②③④|
③⑤⑥④ |⑤⑥⑦⑧|
⑦口口⑧
口口口口

口⑪⑪口
口口口口
口⑩⑩口 |⑨-⑩-|
口⑨⑨口 |⑪---|
34
口口口口 |--①②|
口口口口 |③④⑤-|
①⑤口②
口③④口

⑨口口⑧
⑪⑦⑥⑩
⑬口口⑫ |⑥⑦⑧⑨|
口口口口 |⑩⑪⑫⑬|
35
⑩⑧⑦⑨ |①②③④|
⑫⑥⑤⑫ |⑤⑥⑦⑧|
⑪④③⑪ |⑨⑩⑪-|
口②①口 |⑫---|
36
口⑨⑧口 |--①②|
⑦⑪⑩⑥ |③-④⑤|
⑬⑤④⑫ |⑥⑦⑧⑨|
①③口② |⑩⑪⑫⑬|
37
③口口③ |①②③-|
⑥⑧⑨⑦ |④-⑤-|
⑩④④⑩ |⑥⑦⑧⑨|
⑤②①⑤ |⑩---|
38
①⑤⑥② |--①②|
③⑦⑧④ |③④⑤⑥|
⑬⑨⑩⑭ |⑦⑧⑨⑩|
口⑪⑫口 |⑪⑫⑬⑭|
39
③⑤⑥④ |①②③④|
①⑦⑧② |⑤⑥⑦⑧|
口口口口
口口口口

口口口口
⑬口口⑬
口⑨⑩口 |⑨⑩⑪⑫|
口⑪⑫口 |⑬---|
40
①⑨⑩② |--①②|
⑦③④⑧ |③④⑤⑥|
⑤⑪⑫⑥ |⑦⑧⑨⑩|
口⑬⑭口 |⑪⑫⑬⑭|
41
口⑦⑧口 |①②③④|
口⑤⑥口 |⑤⑥⑦⑧|
③口口④
①口口②

⑬口口⑬
⑨口口⑩
⑭口口⑭ |⑨⑩⑪⑫|
口⑪⑫口 |⑬-⑭-|
42
⑥⑤口口 |-①②③|
口口口④ |④-⑤⑥|
口②③口
①口口口

口口口⑦
口⑨⑧口
⑩口口⑪ |⑦-⑧⑨|
⑫口口⑬ |⑩⑪⑫⑬|
43
⑦口口⑧ |①②③④|
⑤口口⑥ |⑤⑥⑦⑧|
口③④口
口①②口

口⑨⑩口
口⑪⑫口
⑬口口⑭ |⑨⑩⑪⑫|
口⑮⑮口 |⑬⑭⑮-|
44
①口口② |-①②③|
③口口④ |④⑤⑥⑦|
口⑤⑥口
⑦口口口

⑮口口口
口⑬⑭口
⑪口口⑫ |⑧⑨⑩⑪|
口⑨⑩⑧ |⑫⑬⑭⑮|
45
口②③① |①②③④|
④口口⑤ |⑤⑥⑦⑧|
⑧⑥⑦口
口口口口

⑫口口⑬
口口口口
口口口⑨ |⑨⑩⑪⑫|
⑩⑭口⑪ |⑬-⑭-|
46
⑤⑤⑤⑤ |①--②|
②②②② |--③-|
③③④④ |④--⑤|
⑥⑥①口 |--⑥-|
47
口口口口 |①--②|
②②②② |--③-|
③③口口
口口①①

⑤⑤⑤⑤
⑥⑥口口
口口④④ |④--⑤|
口口口口 |--⑥-|
48
口④⑤口 |①--②|
口口①① |--③-|
③口⑦⑥ |④-⑤-|
②②②② |⑥-⑦-|
49
④口口④ |--①-|
③②②③ |②-③-|
①⑤⑤口 |④-⑤-|
⑥⑥口口 |--⑥-|
50
⑤⑤⑤⑤ |①--②|
②②②② |--③-|
③③④④ |④--⑤|
⑥⑥①① |--⑥-|
51
口口口口 |①--②|
②②②② |--③-|
③③口口
口口①①

⑤⑤⑤⑤
口口口口
口口④④ |④--⑤|
口⑥⑥口 |--⑥-|
52
②口口③ |①---|
①①①① |--②-|
口④⑤口 |③-④-|
⑥口口口 |⑤-⑥-|
53
口②③口 |①--②|
②口口③ |--③-|
口口口④ |--④-|
⑤口④① |--⑤-|
54
①①口② |①--②|
口口④口 |③-④-|
③③口口
口口口口

⑦⑦⑧口
⑥口口口
口口⑤⑤ |⑤-⑥-|
口口口口 |⑦-⑧-|
55
口④④口 |①---|
口①口① |②---|
③③口口 |③---|
②②口口 |④---|
56
口口⑤⑤ |①---|
口①口① |②-③-|
④④②② |④---|
口③口口 |⑤---|
57
口口口口 |①---|
②②口③ |②-③-|
口口①①
口口口口

口口口口
口口口口
⑤⑥⑦⑥ |④-⑤-|
口口④④ |⑥-⑦-|
58
①①⑦口 |①---|
⑥③⑥口 |②-③-|
④④口口 |④-⑤-|
②②⑤口 |⑥-⑦-|
59
①①口口 |①---|
口②口② |②---|
口口口口
口口口口

口④④口
口口口口
③③口口 |③---|
口口口口 |④---|
60
口⑤⑤口 |①---|
口①口① |②-③-|
④④②② |④---|
口口③口 |⑤---|
61
口口口口 |①---|
③口④④ |②-③-|
⑥⑦⑥⑤ |④-⑤-|
①①②② |⑥-⑦-|
62
⑤⑤口③ |①---|
②②④④ |②-③-|
口口口口 |④---|
①①口口 |⑤---|
63
④④口③ |①---|
⑤⑤⑥口 |②-③-|
②②①① |④---|
口口口口 |⑤-⑥-|
64
口口口口 |①---|
④④口口 |②-③-|
②②①① |④---|
⑤⑤口③ |⑤---|
65
①口口① |①---|
口③口口 |②-③-|
④④⑤⑤ |④---|
口口②② |⑤---|
66
①①口口 |①---|
口口②② |②-③-|
口③口口
口口口口

⑤⑤口口
口口口口
口口口口 |④---|
口口④④ |⑤---|
67
口口口口 |①---|
④④①① |②-③-|
②②⑤③ |④-⑤-|
⑥⑥口口 |⑥---|
68
②①①③ |①-②-|
口④⑤口 |③-④-|
⑥口口⑦ |⑤-⑥-|
口⑧口口 |⑦-⑧-|
69
口②口口 |①---|
口③口口 |②-③-|
口口口口
口口①口

口口口口
口口④口
口口⑤口 |--④-|
口口⑥口 |⑤-⑥-|


不确定度: 0

最終更新:2012年11月16日 18:42