Jump Pump
miray

BASIC

Level: 3
BPM: 140-152
Notes: 239

BPM: 140
1
口口口口 |----|
口口口口 |----|
口口口口 |①---|
口①①口 |----|
2
口口口口 |①---|
口②②口 |----|
①口口口 |②---|
口口口口 |----|
3
口口口口 |①---|
口口口口 |----|
口口口① |②---|
②口口② |----|
4
口口口口 |①---|
②口口② |----|
口①口口 |②---|
口口口口 |----|
5
口口口口 |①---|
口口口口 |----|
①口口① |②---|
②口口② |----|
6
口口口口 |①---|
口②②口 |----|
口口①口 |②---|
口口口口 |----|
7
口口口口 |①---|
口口口口 |----|
①口口口 |②---|
口②②口 |----|
8
口口口口 |----|
口口口口 |----|
口口口口 |----|
口口口口 |----|

BPM: 152
9
①②③④ |①---|
口口口口 |②---|
口口口口 |③---|
口口口口 |④---|
10
口口口口 |①---|
口①①口 |----|
口②③口 |②---|
口口口口 |③---|
11
口口口口 |①---|
口口口口 |----|
②口口③ |②---|
①口口① |③---|
12
②口口③ |①---|
口①①口 |----|
口口口口 |②---|
口口口口 |③---|
13
口口口口 |①---|
①口口② |②---|
③口口④ |③---|
口口口口 |④---|
14
口口口口 |①---|
口口口口 |----|
②口口③ |②---|
口①①口 |③---|
15
口②③口 |①---|
口①①口 |----|
口口口口 |②---|
口口口口 |③---|
16
①口口① |①---|
口②③口 |----|
口口口口 |②---|
口口口口 |③---|
17
口口口口 |①---|
口口口口 |②---|
口①②口 |③---|
口③④口 |④---|
18
口口口口 |----|
口口口口 |①---|
①口口② |②---|
口口口口 |----|
19
口口口口 |①---|
口③④口 |②---|
口①②口 |③---|
口口口口 |④---|
20
口口口口 |----|
①口口② |①---|
口口口口 |②---|
口口口口 |----|
21
口口口口 |①---|
口③④口 |②---|
口①②口 |③---|
口口口口 |④---|
22
口口口口 |----|
口口口口 |①---|
①口口口 |②---|
②③口口 |③---|
23
口口口口 |①---|
口口口口 |②---|
口口口③ |③---|
口口①② |----|
24
口口口口 |①---|
口①①口 |----|
口②②口 |②---|
口口口口 |----|
25
口口口口 |①---|
口口口口 |----|
口口口口 |----|
口①①口 |----|
26
口口口口 |----|
口口口口 |①---|
①口口② |②---|
口口口口 |----|
27
口口口口 |①---|
口口口口 |②---|
口③④口 |③---|
口①②口 |④---|
28
口口口口 |----|
①口口② |①---|
口口口口 |②---|
口口口口 |----|
29
口①口口 |①---|
口口②口 |②---|
口③口口 |③---|
口口④口 |④---|
30
口口口口 |----|
③口口口 |①---|
①口口② |②---|
口口口口 |③---|
31
②口口③ |①---|
口口口① |②---|
口口口口 |③---|
口口口口 |----|
32
口①①口 |①---|
口②②口 |----|
口口口口 |②---|
口口口口 |----|
33
口口口口 |①---|
口口口口 |----|
口①①口 |②---|
口②②口 |----|
34
口口口口 |①---|
口口口口 |----|
②③口口 |②---|
①口口① |③---|
35
口口口口 |①---|
口③②口 |----|
口口①口 |②---|
口口口口 |③---|
36
口②③口 |①---|
①口口口 |----|
口口口口 |②---|
口口口口 |③---|
37
口口口口 |①---|
①口口① |----|
②口口② |②---|
口口口口 |----|
38
口口口口 |①---|
口口口口 |----|
口②③口 |②---|
口①①口 |③---|
39
口口口口 |①---|
口③②口 |----|
口口口① |②---|
口口口口 |③---|
40
口②②口 |①---|
①口口口 |----|
口口口口 |②---|
口口口口 |----|
41
口口口口 |①---|
口①①口 |----|
②口口② |②---|
③口口③ |③---|
42
口口口口 |----|
口口口口 |----|
口口口口
口口口口
43
②口口② |①---|
口①①口 |----|
口口口口 |②---|
口口口口 |----|
44
口口口口 |①---|
①口口② |②---|
③口口④ |③---|
口口口口 |④---|
45
口口口口 |①---|
口口口口 |----|
②口口② |②---|
口①①口 |----|
46
口口口口 |①---|
口①②口 |②---|
口③④口 |③---|
口口口口 |④---|
47
口口口口 |①---|
口口口口 |②---|
口口口口 |③---|
③①②④ |④---|
48
口口口口 |①---|
口口口口 |②---|
③口口④ |③---|
口①②口 |④---|
49
③口口④ |①---|
①口口② |②---|
口口口口 |③---|
口口口口 |④---|
50
口①①口 |①---|
口②②口 |----|
口口口口 |②---|
口口口口 |----|
51
口口口口 |①---|
②口口② |----|
口①①口 |②---|
口口口口 |----|
52
口口口口 |①---|
口口口口 |②---|
①口口② |③---|
③口口④ |④---|
53
口口口口 |①---|
口口口口 |----|
②口口② |②---|
口①①口 |----|
54
口口口口 |①---|
口③④口 |②---|
口①②口 |③---|
口口口口 |④---|
55
③①②④ |①---|
口口口口 |②---|
口口口口 |③---|
口口口口 |④---|
56
口口口口 |①---|
①口口② |②---|
③口口④ |③---|
口口口口 |④---|
57
口口口口 |①---|
口口口口 |②---|
口口口口 |③---|
①③④② |④---|
58
口口口口 |①---|
口②②口 |----|
口①①口 |②---|
口口口口 |----|
59
口①①口 |①---|
②口口② |----|
③口口③ |②---|
口口口口 |③---|
60
口口口口 |①---|
口②③口 |----|
口①①口 |②---|
口口口口 |③---|
61
①口口① |①---|
②口口③ |----|
口口口口 |②---|
口口口口 |③---|
62
②口口③ |①---|
口①①口 |----|
口口口口 |②---|
口口口口 |③---|
63
口口口口 |①---|
①口口② |②---|
③口口④ |③---|
口口口口 |④---|
64
口口口口 |①---|
口口口口 |----|
②口口③ |②---|
①口口① |③---|
65
口②③口 |①---|
口①①口 |----|
口口口口 |②---|
口口口口 |③---|
66
①口口① |①---|
口②③口 |----|
口口口口 |②---|
口口口口 |③---|
67
口口口口 |①---|
口口口口 |②---|
口①②口 |③---|
口③④口 |④---|


不確定度: 0

最終更新:2013年03月29日 20:38