Jump Pump
miray

ADVANCED

Level: 5
BPM: 140-152
Notes: 492

BPM: 140
1
口口口口 |----|
口口口口 |----|
②口口口 |①---|
口①①口 |--②-|
2
口④口口 |①-②-|
②口口③ |③--④|
口⑤口① |----|
口口口口 |--⑤-|
3
④口口口 |①-②-|
口②③口 |③--④|
口口①口 |----|
⑤口口口 |--⑤-|
4
口口口口 |①-②-|
⑤④口口 |③--④|
②口口③ |----|
口口口① |--⑤-|
5
⑤口口口 |①---|
口口口② |②-③-|
口③①① |④---|
口口④④ |--⑤-|
6
口②③① |①-②-|
口④口口 |③-④-|
口⑤⑥⑦ |---⑤|
口口口口 |-⑥-⑦|
7
口口口口 |---①|
口口口口 |-②-③|
口口口口 |----|
③②①口 |----|
8
口口口口 |----|
口口口口 |----|
口口口口 |----|
口口口口 |----|

BPM: 152
9
②②③③ |①---|
口口口口 |②---|
口口口口 |③---|
④④①① |④---|
10
④口口⑤ |①--②|
口口③③ |--③-|
口口②② |--④-|
口口①① |⑤---|
11
口④⑤口 |①--②|
③③口口 |--③-|
②②口口 |--④-|
①①口口 |⑤---|
12
口④⑤⑥ |①--②|
口③③口 |--③-|
口②②口 |--④-|
口①①口 |⑤-⑥-|
13
口⑤⑤口 |①-②-|
③口口④ |③-④-|
①口口② |⑤---|
⑥口口⑥ |⑥---|
14
口口③③ |①--②|
口口②② |--③-|
口口①① |--④-|
口④⑤口 |⑤---|
15
③③口口 |①--②|
②②口口 |--③-|
①①口口 |--④-|
④口口⑤ |⑤---|
16
口③③口 |①--②|
口②②口 |--③-|
口①①口 |--④-|
口④⑤⑥ |⑤-⑥-|
17
口⑤⑤口 |①-②-|
③口口④ |③-④-|
①口口② |⑤---|
口⑥⑥口 |⑥---|
18
口口口口 |--①-|
⑤③④口 |②-③-|
口①②口 |④---|
口口口口 |--⑤-|
19
②口口③ |①-②-|
口口口① |③---|
④⑤⑥⑦ |④-⑤-|
口口口口 |⑥-⑦-|
20
口③④口 |--①-|
口①②口 |②-③-|
口口口口 |④---|
⑤口口口 |--⑤-|
21
口口口口 |①-②-|
④⑤⑥⑦ |③---|
②口口③ |④-⑤-|
口口口① |⑥-⑦-|
22
口口口口 |----|
口口口口 |①---|
④④③③ |②---|
②②①① |③-④-|
23
①口口① |--①-|
⑤②②口 |--②-|
③口口④ |--③-|
口口口口 |④-⑤-|
24
口②③口 |①---|
口⑤⑤① |②-③-|
口④④口 |--④-|
口口口口 |--⑤-|
25
口口口口 |①---|
①口口② |②---|
③口口④ |③---|
口口口口 |④---|
26
口口口口 |①-②-|
⑥④⑤口 |③-④-|
口②③口 |⑤---|
①口口① |--⑥-|
27
②口口③ |①-②-|
口口口① |③---|
④⑤⑥⑦ |④-⑤-|
口口口口 |⑥-⑦-|
28
口口口口 |--①-|
⑤口口口 |②-③-|
口③④口 |④---|
口①②口 |--⑤-|
29
②④⑤③ |①-②-|
口⑥⑦① |③-④-|
口⑧口口 |⑤-⑥-|
口口口口 |⑦-⑧-|
30
口口口口 |----|
③③④④ |①---|
②口口① |②---|
①口口② |③-④-|
31
口①①口 |--①-|
⑤口口口 |--②-|
③②②④ |--③-|
口口口口 |④-⑤-|
32
②口口③ |①---|
口④④① |②-③-|
口⑤口口 |--④-|
口口口口 |--⑤-|
33
口口口口 |①---|
口口口口 |②---|
⑤口①⑥ |③-④-|
②③④② |⑤-⑥-|
34
口口口口 |--①-|
⑦⑦④口 |②-③-|
⑤③⑥⑥ |④-⑤-|
①口口② |⑥-⑦-|
35
口口①① |①-②-|
⑧⑧口⑤ |③-④-|
④⑥⑦⑦ |⑤-⑥-|
口②③口 |⑦-⑧-|
36
②口①① |①-②-|
口口③口 |③-④-|
④⑧口⑦ |⑤-⑥-|
口⑥⑤口 |⑦-⑧-|
37
口口①① |①---|
②②口口 |②---|
口口③③ |③---|
④④口口 |④---|
38
口口口口 |--①-|
口②口① |②-③-|
口口③口
口口口口

口口口口
④口⑦⑦
⑥⑥口口 |④-⑤-|
口口⑤⑤ |⑥-⑦-|
39
①①口② |①-②-|
口③⑧⑧ |③-④-|
⑦⑦口④ |⑤-⑥-|
⑤口⑥⑥ |⑦-⑧-|
40
①①⑤口 |①-②-|
⑥④口⑦ |③-④-|
口口③口 |⑤--⑥|
口②口口 |--⑦-|
41
①口口① |①-②-③-|
口②口口 |④---|
口⑤⑤③ |⑤---|
④⑥⑥口 |⑥---|
42
口口口口 |----|
口口口口 |----|
口口口口
口口口口
43
②②③③ |①---|
①④④① |②-③-|
①口口① |--④-|
⑤口口口 |--⑤-|
44
口口口口 |①-②-|
口口口口 |③-④-|
⑥②①⑦ |⑤-⑥-|
口④⑤③ |⑦---|
45
①②③① |①---|
①②③① |②-③-|
口④④口 |--④-|
⑤口口口 |--⑤-|
46
口口口口 |①-②-|
⑥口口⑦ |③-④-|
②口口① |⑤-⑥-|
口④⑤③ |⑦---|
47
口④⑤口 |①---|
口②①③ |②---|
③①②口 |③---|
口口口口 |④-⑤-|
48
口口⑤口 |--①-|
口④口口 |--②-|
口口③口 |③-④-|
①②口① |⑤---|
49
②口口① |①---|
口③③口 |②---|
④④⑤⑤ |③---|
①口口② |④-⑤-|
50
①口③口 |①---|
口口口口 |②---|
口口口口 |③---|
口②口④ |④---|
51
②②③③ |①---|
①④④① |②-③-|
①口口① |--④-|
⑤口口口 |--⑤-|
52
口口口口 |①-②-|
口口口口 |③-④-|
⑥②①⑦ |⑤-⑥-|
口④⑤③ |⑦---|
53
①②③① |①---|
①②③① |②-③-|
口④④口 |--④-|
⑤口口口 |--⑤-|
54
口口口口 |①-②-|
⑥口口⑦ |③-④-|
②口口① |⑤-⑥-|
口④⑤③ |⑦---|
55
口④⑤口 |①---|
口②①③ |②---|
③①②口 |③---|
口口口口 |④-⑤-|
56
口⑥⑤口 |--①-|
口④口口 |--②-|
口口③口 |③-④-|
①②口① |⑤-⑥-|
57
口口口① |①---|
②③③② |②---|
④④⑤⑤ |③---|
口口口口 |④-⑤-|
58
①②③④ |①---|
口口口口 |②---|
口口口口 |③---|
口口口口 |④---|
59
口口口口 |①-②-③-|
⑤⑤口口 |④---|
⑥⑥口口 |⑤---|
③①②④ |⑥---|
60
④口口⑤ |①--②|
口口③③ |--③-|
口口②② |--④-|
口口①① |⑤---|
61
口④⑤口 |①--②|
③③口口 |--③-|
②②口口 |--④-|
①①口口 |⑤---|
62
口④⑤⑥ |①--②|
口③③口 |--③-|
口②②口 |--④-|
口①①口 |⑤-⑥-|
63
口⑤⑤口 |①-②-|
③口口④ |③-④-|
①口口② |⑤---|
⑥口口⑥ |⑥---|
64
口口③③ |①--②|
口口②② |--③-|
口口①① |--④-|
口④⑤口 |⑤---|
65
③③口口 |①--②|
②②口口 |--③-|
①①口口 |--④-|
④口口⑤ |⑤---|
66
口③③口 |①--②|
口②②口 |--③-|
口①①口 |--④-|
口④⑤⑥ |⑤-⑥-|
67
口⑤⑤口 |①-②-|
③口口④ |③-④-|
①口口② |⑤---|
口⑥⑥口 |⑥---|


不確定度: 0

最終更新:2013年03月29日 20:38