Jump Pump
miray

EXTREME

Level: 7
BPM: 140-152
Notes: 601

BPM: 140
1
口口口口 |----|
口口口口 |----|
②口口口 |①---|
①①口口 |--②-|
2
口⑥口口 |①-②-|
②口口① |③--④|
⑤⑤口③ |⑤---|
口口④口 |--⑥-|
3
口口口口 |①-②-|
⑤⑤①口 |③--④|
口②③口 |⑤---|
⑥口④口 |--⑥-|
4
⑤⑤⑥口 |①-②-|
口口④口 |③--④|
②口口③ |⑤---|
口口口① |--⑥-|
5
口口口① |①---|
①①③② |②-③-|
④④口口 |④---|
口⑤口口 |--⑤-|
6
口口③④ |①-②-|
⑧②口口 |③-④-|
⑥口①⑦ |⑤--⑥|
⑤⑤口口 |-⑦-⑧|
7
口口①口 |---①|
口②口口 |-②-③|
④④③口 |④---|
口口口口 |----|
8
口口口口 |----|
口口口口 |----|
口口口口 |----|
口口口口 |----|

BPM: 152
9
口④④口 |①---|
③④①① |②---|
③③②① |③---|
口②②口 |④---|
10
口口口③ |①--②|
口口③② |--③-|
口口②①
口口①口

④④口口
口口口口
口口口口 |--④-|
口口⑤⑤ |⑤---|
11
③口口口 |①--②|
②③口口 |--③-|
①②口口
口①口口

口口④④
口口口口
口口口口 |--④-|
⑤⑤口口 |⑤---|
12
③③口口 |①--②|
②②①① |--③-|
①①②②
口口③③

口口口⑤
⑥口口口
口口口口 |--④-|
④口口口 |⑤-⑥-|
13
口⑤⑤口 |①-②-|
口④③口 |③-④-|
口②口① |⑤---|
⑥口口⑥ |⑥---|
14
口口口③ |①--②|
口口③② |--③-|
口口②①
口口①口

④④口口
口口口口
口口口口 |--④-|
口口⑤⑤ |⑤---|
15
③口口口 |①--②|
②③口口 |--③-|
①②口口
口①口口

口口④④
口口口口
口口口口 |--④-|
⑤⑤口口 |⑤---|
16
③③口口 |①--②|
②②①① |--③-|
①①②②
口口③③

口口口⑤
⑥口口口
口口口口 |--④-|
④口口口 |⑤-⑥-|
17
口⑤⑤口 |①-②-|
口④③口 |③-④-|
口②口① |⑤---|
⑥口口⑥ |⑥---|
18
口口口口 |--①-|
③⑤口② |②-③-|
①口口④ |④---|
口口口口 |--⑤-|
19
口⑤⑥口 |①-②-|
④口①⑦ |③---|
口②③口 |④-⑤-|
口口口口 |⑥-⑦-|
20
口口口口 |--①-|
口口口口 |②-③-|
③口④口 |④---|
⑤①口② |--⑤-|
21
④口口⑦ |①-②-|
口⑤⑥口 |③---|
口②口③ |④-⑤-|
口口①口 |⑥-⑦-|
22
口口口口 |----|
③口口④ |①---|
①③④② |②---|
口①②口 |③-④-|
23
①口口① |--①-|
口②②口 |--②-|
口口口口 |--③-|
③⑤口④ |④-⑤-|
24
口口口口 |①---|
①口口① |②-③-|
④②③④ |--④-|
口⑤⑤口 |--⑤-|
25
①口口② |①---|
口①②口 |②---|
口③④口 |③---|
③口口④ |④---|
26
口口口口 |①-②-|
①④口① |③-④-|
①口口①
口②③口

口口口口
口口⑤口
⑥口口口 |⑤---|
口口口口 |--⑥-|
27
口②③口 |①-②-|
口口口口 |③---|
口⑤⑥① |④-⑤-|
④口口⑦ |⑥-⑦-|
28
口口口口 |--①-|
口③②口 |②-③-|
①口口④ |④---|
口⑤口口 |--⑤-|
29
口⑤⑥口 |①-②-|
④⑧口⑦ |③-④-|
口②①口 |⑤-⑥-|
口口③口 |⑦-⑧-|
30
口口口口 |----|
口③④口 |①---|
③①②④ |②---|
①口口② |③-④-|
31
口②②口 |--①-|
①口口① |--②-|
③⑤口④ |--③-|
口口口口 |④-⑤-|
32
①口口① |①---|
口②③口 |②-③-|
⑤口口口 |--④-|
④⑤口④ |--⑤-|
33
口口口口 |①---|
②口口② |②---|
口②②①
口口①口

③口口④
口③④口
⑤口口⑥ |③-④-|
口⑤⑥口 |⑤-⑥-|
34
口口口口 |--①-|
口⑧⑧② |②-③-|
⑦③口⑦ |④⑤⑥-|
①④⑤⑥ |⑦-⑧-|
35
①口③① |①-②-|
②⑨⑨口 |③-④-|
⑧④口⑧ |⑤⑥⑦-|
口⑤⑥⑦ |⑧-⑨-|
36
①口⑤① |①-②-|
⑥口口③ |③-④-|
口④⑦口 |⑤-⑥-|
②⑧口口 |⑦-⑧-|
37
③③口② |①---|
口口口② |②---|
④口口口 |③---|
④口①① |④---|
38
口口口口 |--①-|
口②口口 |②-③-|
口口口③
口口①口

口口口口
口口⑤⑥
口④口口 |④-⑤⑥|
⑦⑦⑧⑧ |⑦-⑧-|
39
①口③⑨ |①-②-|
④①⑨口 |③-④-|
②口口⑤ |⑤-⑥⑦|
⑧⑧⑥⑦ |⑧-⑨-|
40
①⑥⑥口 |①-②-|
⑤①口④ |③-④-|
⑦③②⑦ |⑤--⑥|
口口口口 |--⑦-|
41
①口口② |①-②-③-|
③①②④ |④---|
口③④口
口口口口

口⑤⑤口
口口口口
口⑨口口 |⑤---|
⑥⑦⑧⑥ |⑥⑦⑧⑨|
42
④口口⑤ |①②③④|
口②③口 |⑤---|
口口①口
口口口口
43
④口口④ |①---|
①④④① |②-③-|
①⑤口① |--④-|
②口口③ |--⑤-|
44
口口①口 |①-②-|
④口口⑤ |③-④-|
②口口⑦ |⑤-⑥-|
⑥口③口 |⑦---|
45
口口口口 |①---|
口①①口 |②-③-|
口①①口
口②③口

口④④口
④口口④
口口⑤口 |--④-|
口口口口 |--⑤-|
46
①口口④ |①-②-|
⑤口口口 |③-④-|
口口口② |⑤-⑥-|
⑦③口⑥ |⑦---|
47
①口口② |①---|
③口口③ |②---|
④①②⑤ |③---|
④③③⑤ |④-⑤-|
48
②口口⑤ |--①-|
口①①口 |--②-|
口④③口 |③-④-|
口口口口 |⑤---|
49
⑤①④口 |①---|
①⑤口④ |②---|
②口口③ |③---|
口②③口 |④-⑤-|
50
④④口口 |①---|
口口①口 |②---|
②口①口 |③---|
②口③③ |④---|
51
④口口④ |①---|
①④④① |②-③-|
①⑤口① |--④-|
②口口③ |--⑤-|
52
口口①口 |①-②-|
④口口⑤ |③-④-|
②口口⑦ |⑤-⑥-|
⑥口③口 |⑦---|
53
口口口口 |①---|
口①①口 |②-③-|
口①①口
口②③口

口④④口
④口口④
口口⑤口 |--④-|
口口口口 |--⑤-|
54
①口口④ |①-②-|
⑤口口口 |③-④-|
口口口② |⑤-⑥-|
⑦③口⑥ |⑦---|
55
①口口② |①---|
③口口③ |②---|
④①②⑤ |③---|
④③③⑤ |④-⑤-|
56
②口口⑤ |--①-|
口①①口 |--②-|
⑥④③口 |③-④-|
口口口口 |⑤-⑥-|
57
口口口口 |①---|
②④④② |②---|
口③③口 |③---|
⑤①①⑤ |④-⑤-|
58
口④④口 |①---|
口口口口 |②---|
③③②② |③---|
口①①口 |④---|
59
口⑤⑤口 |①-②-③-|
①①④④ |④---|
③③②② |⑤---|
⑥口口⑥ |⑥---|
60
口口口③ |①--②|
口口③② |--③-|
口口②①
口口①口

④④口口
口口口口
口口口口 |--④-|
口口⑤⑤ |⑤---|
61
③口口口 |①--②|
②③口口 |--③-|
①②口口
口①口口

口口④④
口口口口
口口口口 |--④-|
⑤⑤口口 |⑤---|
62
③③口口 |①--②|
②②①① |--③-|
①①②②
口口③③

口口口⑤
⑥口口口
口口口口 |--④-|
④口口口 |⑤-⑥-|
63
口⑤⑤口 |①-②-|
口④③口 |③-④-|
口②口① |⑤---|
⑥口口⑥ |⑥---|
64
口口口③ |①--②|
口口③② |--③-|
口口②①
口口①口

④④口口
口口口口
口口口口 |--④-|
口口⑤⑤ |⑤---|
65
③口口口 |①--②|
②③口口 |--③-|
①②口口
口①口口

口口④④
口口口口
口口口口 |--④-|
⑤⑤口口 |⑤---|
66
③③口口 |①--②|
②②①① |--③-|
①①②②
口口③③

口口口⑤
⑥口口口
口口口口 |--④-|
④口口口 |⑤-⑥-|
67
口⑤⑤口 |①-②-|
⑥④③⑥ |③-④-|
口②口① |⑤---|
口⑥⑥口 |⑥---|


不確定度: 0

最終更新:2013年03月29日 20:37