Infinity
GIRL NEXT DOOR

BASIC

Level: 2
BPM: 147
Notes: 220

1
口口口口 |----|
口口口口 |----|
口口口口 |----|
口口口口 |----|
2
①②口③ |①---|
口口口口 |----|
口口口口 |②---|
口口口口 |③---|
3
口口口口 |①---|
③口②① |----|
口口口口 |②---|
口口口口 |③---|
4
口口口口 |①---|
口口口口 |----|
①②口③ |②---|
口口口口 |③---|
5
口口口口 |①---|
口口口口 |----|
口口口口 |②---|
③口②① |③---|
6
口口口口 |①---|
口口口口 |----|
①②口③ |②---|
口口口口 |③---|
7
口口口口 |①---|
③口②① |----|
口口口口 |②---|
口口口口 |③---|
8
①②口③ |①---|
口口口口 |----|
口口口口 |②---|
口口口口 |③---|
9
口口口口 |①---|
口②②① |----|
口③③口 |②--③|
口④④口 |--④-|
10
口口口口 |----|
口口口口 |----|
口口口口 |----|
口口口口 |----|
11
①②口口 |----|
口③口口 |①---|
口口口口 |②---|
口口口口 |③---|
12
口口口口 |①---|
口口①口 |②---|
口口②③ |③---|
口口口口 |----|
13
口口②① |----|
口口③口 |①---|
口口口口 |②---|
口口口口 |③---|
14
口口口口 |①---|
口①口口 |②---|
③②口口 |③---|
口口口口 |----|
15
口口口口 |----|
口口③口 |①---|
口口②① |②---|
口口口口 |③---|
16
③②口口 |①---|
口①口口 |②---|
口口口口 |③---|
口口口口 |----|
17
口口口口 |①---|
口口口口 |----|
①②口口 |②---|
口口口口 |----|
18
口口口口 |①---|
口口口口 |----|
口口①② |②---|
口口口口 |----|
19
口口②① |----|
口口③口 |①---|
口口口口 |②---|
口口口口 |③---|
20
口口口口 |①---|
口①口口 |②---|
③②口口 |③---|
口口口口 |----|
21
①②口口 |----|
口③口口 |①---|
口口口口 |②---|
口口口口 |③---|
22
口口口口 |①---|
口口①口 |②---|
口口②③ |③---|
口口口口 |----|
23
口口口口 |----|
口③口口 |①---|
①②口口 |②---|
口口口口 |③---|
24
口口②③ |①---|
口口①口 |②---|
口口口口 |③---|
口口口口 |----|
25
口口口口 |①---|
口口口口 |----|
口口②① |②---|
口口口口 |----|
26
口口口口 |①---|
口口口口 |----|
②①口口 |②---|
口口口口 |----|
27
口口口口 |----|
口①口口 |①---|
口②口口 |②---|
口③口口 |③---|
28
口口口口 |----|
口口①口 |①---|
口口②口 |②---|
口口③口 |③---|
29
口口口口 |----|
口③口口 |①---|
口口②口 |②---|
口①口口 |③---|
30
口②①口 |①---|
口口口口 |----|
口口口口 |②---|
口口口口 |----|
31
口口口口 |----|
口①口口 |①---|
口②口口 |②---|
口③口口 |③---|
32
口口口口 |----|
口口①口 |①---|
口口②口 |②---|
口口③口 |③---|
33
口口口口 |----|
口③口口 |①---|
口口②口 |②---|
口①口口 |③---|
34
口①①口 |①---|
口②②口 |----|
口口口口 |②---|
口口口口 |----|
35
①②②① |①---|
口口口口 |----|
口口口口 |②---|
口口口口 |----|
36
口口口口 |①---|
①②②① |----|
口口口口 |②---|
口口口口 |----|
37
口口口口 |①---|
口口口口 |----|
①②②① |②---|
口口口口 |----|
38
口口口口 |①---|
①①①① |----|
②②②② |②---|
口口口口 |----|
39
①②②① |①---|
口口口口 |----|
口口口口 |②---|
口口口口 |----|
40
口口口口 |①---|
①②②① |----|
口口口口 |②---|
口口口口 |----|
41
口口口口 |①---|
口口口口 |----|
①②②① |②---|
口口口口 |----|
42
口口口口 |①---|
口③③口 |--②-|
口②②口 |--③-|
口①①口 |----|
43
①口口口 |①---|
口②口口 |----|
口口口口 |②---|
口口口口 |----|
44
口口口口 |①---|
口口口② |----|
口口①口 |②---|
口口口口 |----|
45
口口口口 |①---|
口口口口 |----|
口①①口 |②---|
口②②口 |----|
46
口口口口 |----|
口口口口 |----|
口口口口 |----|
口口口口 |----|
47
口口口口 |①---|
口口口口 |----|
口口②口 |②---|
口口口① |----|
48
口口②口 |①---|
口①口口 |----|
口口口口 |②---|
口口口口 |----|
49
口②②口 |①---|
口①①口 |----|
口口口口 |②---|
口口口口 |----|
50
口口口口 |----|
口口口口 |----|
口口口口 |----|
口口口口 |----|
51
①口口口 |①---|
口②口口 |----|
口口口口 |②---|
口口口口 |----|
52
口口口口 |①---|
口口口② |----|
口口①口 |②---|
口口口口 |----|
53
口口口口 |①---|
口口口口 |----|
口①①口 |②---|
口②②口 |----|
54
口口口口 |----|
口口口口 |----|
口①①口 |----|
口口口口 |①---|
55
②①①② |①---|
口口口口 |----|
口口口口 |②---|
口口口口 |----|
56
口口①口 |①---|
口②口口 |②---|
口口③口 |③---|
口④口口 |④---|
57
口口口口 |①---|
口口口口 |----|
①口口① |----|
口口②口 |②---|
58
口口口口 |①---|
口口口口 |----|
口①口口 |----|
口口口口 |----|
59
①口口① |①---|
口②②口 |----|
口口口口 |②---|
口口口口 |----|
60
口口口口 |①---|
口口口口 |②---|
④③②① |③---|
口口口口 |④---|
61
口口口口 |①---|
口①①口 |----|
口口口口 |----|
口口口口 |----|
62
口口口口 |----|
口口口口 |----|
口口口口 |----|
口口口口 |----|
63
①②②① |①---|
口口口口 |----|
口口口口 |②---|
口口口口 |----|
64
口口口口 |①---|
①②②① |----|
口口口口 |②---|
口口口口 |----|
65
口口口口 |①---|
口口口口 |----|
①②②① |②---|
口口口口 |----|
66
口口口口 |①---|
①①①① |----|
②②②② |②---|
口口口口 |----|
67
①②②① |①---|
口口口口 |----|
口口口口 |②---|
口口口口 |----|
68
口口口口 |①---|
①②②① |----|
口口口口 |②---|
口口口口 |----|
69
口口口口 |①---|
口口口口 |----|
①②②① |②---|
口口口口 |----|
70
口③③口 |①---|
口②②口 |--②-|
口口口口 |--③-|
口①①口 |----|


不确定度: 0

最終更新:2012年11月16日 18:41