Infinity
GIRL NEXT DOOR

ADVANCED

Level: 5
BPM: 147
Notes: 437

1
口口口口 |----|
口口口口 |----|
口口口口 |----|
口口口口 |----|
2
①②①② |①--②|
口口口口 |--③-|
口口口口
③口③口

口⑤⑤口
口口口口
口口口口 |④---|
口④口④ |--⑤-|
3
口口口口 |①--②|
①②①② |--③-|
③④③④ |④---|
口口口口 |----|
4
②①②① |①--②|
口口口口 |--③-|
口口口口
口③口③

口⑤⑤口
口口口口
口口口口 |④---|
④口④口 |--⑤-|
5
口口口口 |①--②|
②①②① |--③-|
④③④③ |④---|
⑥⑤⑤⑥ |⑤-⑥-|
6
①②口③ |①--②|
口③①② |--③-|
口口口口
口口口口

⑤⑤④口
④口口口
口口口口 |④---|
口口口口 |--⑤-|
7
口⑤⑤口 |①--②|
口口口口 |--③-|
①②④③ |④---|
④③①② |--⑤-|
8
口口口口 |①-②-|
①⑥②⑤ |③-④-|
⑧③⑦④ |⑤-⑥-|
口口口口 |⑦-⑧-|
9
口⑦口⑦ |①-②-|
①口②口 |③-④-|
⑥③⑥④ |⑤--⑥|
口⑤口⑤ |--⑦-|
10
口口口口 |----|
口口口口 |----|
口①①口 |----|
口口口口 |①---|
11
口①口口 |----|
口③口口 |①-②-|
④⑤口口 |③---|
口②口口 |④-⑤-|
12
口口口口 |--①-|
口口①① |--②-|
口口口口 |----|
口口②② |----|
13
口口①口 |----|
口口③口 |①-②-|
口口⑤④ |③---|
口口②口 |④-⑤-|
14
①①口口 |--①-|
口口口口 |--②-|
②②口口 |----|
口口口口 |----|
15
①口口口 |----|
③口口口 |①-②-|
④⑤口口 |③---|
②口口口 |④-⑤-|
16
口口①① |--①-|
口口口口 |--②-|
口口②② |----|
口口口口 |----|
17
口④④③ |①---|
口⑤⑤② |②-③-|
口口口口 |--④-|
口口口① |--⑤-|
18
口口口口 |--①-|
口口口口 |--②-|
口①①口 |----|
口②②口 |----|
19
口①口口 |----|
口③口口 |①-②-|
④⑤口口 |③---|
口②口口 |④-⑤-|
20
口口口口 |--①-|
口口①① |--②-|
口口口口 |----|
口口②② |----|
21
口口①口 |----|
口口③口 |①-②-|
口口⑤④ |③---|
口口②口 |④-⑤-|
22
①①口口 |--①-|
口口口口 |--②-|
②②口口 |----|
口口口口 |----|
23
①口口口 |----|
③口口口 |①-②-|
④⑤口口 |③---|
②口口口 |④-⑤-|
24
口口①① |--①-|
口口口口 |--②-|
口口②② |----|
口口口口 |----|
25
口④④③ |①---|
口⑤⑤② |②-③-|
口口口口 |--④-|
口口口① |--⑤-|
26
口口口口 |--①-|
口口口口 |--②-|
口①①口 |----|
口②②口 |----|
27
①②③④ |----|
口口口⑤ |①-②-|
口口口⑥ |③-④-|
口口口口 |⑤-⑥-|
28
口口口口 |----|
①口口口 |①-②-|
②口口口 |③-④-|
③④⑤⑥ |⑤-⑥-|
29
口口口口 |----|
①②③口 |①-②-|
口口④口 |③-④-|
口⑥⑤口 |⑤-⑥-|
30
口口口口 |①---|
口口口口 |--②-|
②②口口 |----|
①口口口 |----|
31
④③②① |----|
⑤口口口 |①-②-|
⑥口口口 |③-④-|
口口口口 |⑤-⑥-|
32
口口口口 |----|
口口口① |①-②-|
口口口② |③-④-|
⑥⑤④③ |⑤-⑥-|
33
口口口口 |----|
口③②① |①-②-|
口④口口 |③-④-|
口⑤⑥口 |⑤-⑥-|
34
口口口口 |①---|
③口口③ |②-③-|
口口②口 |----|
口口口① |----|
35
口口口口 |①---|
③③③③ |--②-|
口口口口 |③---|
①②②① |----|
36
口口口口 |①---|
③③③③ |--②-|
①口口① |③---|
口②②口 |----|
37
口口口口 |①---|
③③③③ |--②-|
口口口口 |③---|
①②②① |----|
38
①①①① |①---|
口口口口 |----|
②②②② |②---|
口口口口 |----|
39
口口口口 |①---|
③③③③ |--②-|
口口口口 |③---|
①②②① |----|
40
口口口口 |①---|
③③③③ |--②-|
①口口① |③---|
口②②口 |----|
41
口口口口 |①---|
③③③③ |--②-|
口口口口 |③---|
①②②① |----|
42
①①①① |①---|
③②②③ |②-③-|
口口口口 |--④-|
口④④口 |----|
43
口口①④ |①---|
口口②③ |②---|
①④口口 |③---|
②③口口 |④---|
44
口口①④ |①---|
口口②③ |②---|
①④口口 |③---|
②③口口 |④---|
45
口口①口 |①---|
口口③② |--②-|
①口口口 |③---|
③②口口 |----|
46
口口口口 |----|
口口口口 |----|
口口口口 |----|
口口口口 |----|
47
①④口口 |①---|
②③口口 |②---|
口口①④ |③---|
口口②③ |④---|
48
①④口口 |①---|
②③口口 |②---|
口口①④ |③---|
口口②③ |④---|
49
①口口口 |①---|
③②口口 |--②-|
口口①口 |③---|
口口③② |----|
50
①口口口 |①---|
口口口口 |----|
口口①口 |----|
口口口口 |----|
51
③④口口 |①---|
②①口口 |②---|
口口③④ |③---|
口口②① |④---|
52
③④口口 |①---|
②①口口 |②---|
口口③④ |③---|
口口②① |④---|
53
②口口口 |①---|
③①口口 |--②-|
口口②口 |③---|
口口③① |----|
54
口口口口 |----|
口③口口 |----|
口②口口 |--①-|
口①口口 |②-③-|
55
口口口口 |①---|
①口口① |--②-|
②口口② |③---|
③口口③ |----|
56
口①①口 |①---|
口②②口 |②---|
口③③口 |③---|
口④④口 |④---|
57
④口口④ |①---|
③口口③ |----|
②口口② |--②-|
①口口① |③-④-|
58
口口口口 |----|
口口口口 |----|
口口口口 |----|
口口口口 |----|
59
口口①口 |①---|
口口口口 |②-③-|
口②⑤⑤ |--④-|
④④③口 |--⑤-|
60
④口口④ |----|
①③③② |①-②-|
口口口口 |--③-|
口口口口 |--④-|
61
口口口口 |----|
口口口口 |----|
口口口口 |----|
口口口口 |----|
62
口口口口 |----|
口口口口 |----|
口口口口 |----|
口口口口 |----|
63
口口口口 |①---|
③③③③ |--②-|
①口口① |③---|
口②②口 |----|
64
口口口口 |①---|
③③③③ |--②-|
口口口口 |③---|
①②②① |----|
65
口口口口 |①---|
③③③③ |--②-|
①口口① |③---|
口②②口 |----|
66
①①①① |①---|
口口口口 |----|
②②②② |②---|
口口口口 |----|
67
口口口口 |①---|
③③③③ |--②-|
口口口口 |③---|
①②②① |----|
68
口口口口 |①---|
③③③③ |--②-|
①口口① |③---|
口②②口 |----|
69
口口口口 |①---|
③③③③ |--②-|
口口口口 |③---|
①②②① |----|
70
①①①① |①---|
③②②③ |②-③-|
口口口口 |--④-|
口④④口 |----|


不确定度: 0

最終更新:2012年11月16日 18:40