Infinity
GIRL NEXT DOOR

EXTREME

Level: 8
BPM: 147
Notes: 743

1
口口口口 |----|
口口口口 |----|
口口口口 |----|
口口口口 |----|
2
口②口① |①--②|
③①③口 |--③-|
口②口①
口口口口

⑤口口口
口口口口
口口口⑥ |④---|
④口④口 |⑤-⑥-|
3
④⑤④⑤ |①--②|
口②口① |--③-|
③①③口 |④---|
口②口① |⑤---|
4
口口口口 |①--②|
①口②口 |--③-|
②③口③
①口②口

口④口④
⑥口口口
口口口口 |④---|
口口口⑤ |⑤-⑥-|
5
①口②口 |①--②|
口③①③ |--③-|
①口②口
口口口口

口口口口
口口口口
口口⑥口 |④---|
⑤④口④ |⑤-⑥-|
6
口②口① |①--②|
③口③② |--③-|
口②口①
口口口口

⑤口口口
口口口口
口口口⑥ |④---|
④口④口 |⑤-⑥-|
7
口口口口 |①--②|
口②口① |--③-|
③①③口
口②口①

④口④口
口口口⑥
口口口口 |④---|
口口口⑤ |⑤-⑥-|
8
口口口口 |①--②|
①口②口 |--③-|
②③口③
①口②口

口④口④
⑥口口⑤
口口口口 |④---|
口口口口 |⑤-⑥-|
9
①口②口 |①--②|
口口①口 |--③-|
①口②口
口③口③

⑤⑥⑥④
口④⑤口
⑤⑥⑥④ |④--⑤|
口口口口 |--⑥-|
10
口口口口 |①②③④|
⑧⑦⑥⑤ |⑤-⑥-|
⑨⑨⑨⑨ |⑦-⑧-|
①②③④ |⑨---|
11
口口③② |①---|
口口口口 |②-③-|
口口口口
①口口①

口口口口
口④④口
口口口口 |④---|
⑤⑥⑥⑤ |⑤-⑥-|
12
③①①④ |--①-|
⑤②②⑥ |--②-|
口①①口 |③-④-|
口口口口 |⑤-⑥-|
13
②③④口 |①---|
口口⑤⑤ |②-③-|
口口⑥口 |④---|
①⑥口① |⑤-⑥-|
14
口口口② |--①-|
①②口口 |--②-|
口口口①
口口口口

口④④口
⑥口口⑥
口⑤⑤口 |③-④-|
③口口③ |⑤-⑥-|
15
口口③② |①---|
口口口口 |②-③-|
口口口口
口①①口

口④口口
⑤⑤口口
口⑥口口 |④---|
口口⑥口 |⑤-⑥-|
16
②口口口 |--①-|
口口②① |--②-|
①口口口
口口口口

口④④口
口口口口
⑥⑤⑤⑥ |③-④-|
③口口③ |⑤-⑥-|
17
口口口口 |①---|
①口②③ |②-③-|
口口口口
口口口口

口口口④
⑤④口口
口口口⑤ |--④-|
口口口口 |--⑤-|
18
口④④口 |--①-|
⑤③③⑤ |--②-|
口②①口 |③-④-|
①⑥⑥② |⑤-⑥-|
19
口口③② |①---|
口④④口 |②-③-|
①口口① |④---|
⑤⑥⑥⑤ |⑤-⑥-|
20
③①①④ |--①-|
⑤②②⑥ |--②-|
口①①口 |③-④-|
口口口口 |⑤-⑥-|
21
②③④口 |①---|
口口⑤⑤ |②-③-|
口口⑥口 |④---|
①⑥口① |⑤-⑥-|
22
口口口② |--①-|
①②口口 |--②-|
口口口①
口口口口

口④④口
⑥口口⑥
口⑤⑤口 |③-④-|
③口口③ |⑤-⑥-|
23
口口③② |①---|
口口口口 |②-③-|
口口口口
口①①口

口④口口
⑤⑤口口
口⑥口口 |④---|
口口⑥口 |⑤-⑥-|
24
②口口口 |--①-|
口口②① |--②-|
①口口口
口口口口

口④④口
口口口口
⑥⑤⑤⑥ |③-④-|
③口口③ |⑤-⑥-|
25
口口口口 |①---|
①口②③ |②-③-|
口口口口
口口口口

口口口④
⑤④口口
口口口⑤ |--④-|
口口口口 |--⑤-|
26
口④④口 |--①-|
⑥③③⑥ |--②-|
口②①口 |③-④-|
①⑤⑤② |⑤-⑥-|
27
②③口口 |①---|
口口口口 |②-③-|
①口口①
口口口口

口口口口
口④⑤口
口口⑥⑦ |④-⑤-|
口口口口 |⑥-⑦-|
28
口口口口 |----|
口口②① |①-②-|
口④③口 |③-④-|
⑥⑤口口 |⑤-⑥-|
29
①②⑤口 |----|
⑥③④口 |①-②-|
口④③⑥ |③-④-|
口⑤②① |⑤-⑥-|
30
②口口口 |①---|
口口口① |--②-|
①口口口 |----|
口口口② |----|
31
口口②① |----|
口④③口 |①-②-|
⑥⑤口口 |③-④-|
口口口口 |⑤-⑥-|
32
口口口口 |----|
①②口口 |①-②-|
口③④口 |③-④-|
口口⑤⑥ |⑤-⑥-|
33
口⑤②① |----|
口④③⑥ |①-②-|
⑥③④口 |③-④-|
①②⑤口 |⑤-⑥-|
34
③口口③ |①---|
①口口口 |②-③-|
口口口① |----|
②口口② |----|
35
④④④④ |①--②|
口口③③ |--③-|
③口②口 |④---|
①①口① |----|
36
口口口口 |①--②|
口口③③ |--③-|
③口②口
①口①①

④④④④
口口口口
口口⑤口 |④---|
口口口口 |--⑤-|
37
口口口口 |①--②|
③③口口 |--③-|
口②口③
①①口①

④④④④
口口口口
口口口口 |④---|
口⑤口口 |--⑤-|
38
⑤④口⑤ |①--②|
③口①① |--③-|
口②④④ |④---|
①口口口 |⑤---|
39
口口口口 |①--②|
③③口口 |--③-|
口②口③
①①口①

④④④④
口口口口
口⑤口口 |④---|
口口口口 |--⑤-|
40
口口口口 |①--②|
口口③③ |--③-|
③口②口
①口①①

④④④④
口口口口
口口⑤口 |④---|
口口口口 |--⑤-|
41
④④④④ |①--②|
③③口口 |--③-|
口②口③ |④---|
①①口① |----|
42
④④④④ |①---|
②②③③ |②-③-|
口口口口 |--④-|
①③②① |----|
43
③口口④ |①---|
①④③② |②---|
③②①④ |③---|
①口口② |④---|
44
口口口口 |①---|
②口口② |②---|
口口口口
①口口①

③口③口
口④口口
口③口口 |③---|
④口④口 |④---|
45
③①③① |①---|
口口②口 |--②-|
口③①口 |③---|
口②口② |----|
46
口口口口 |①---|
口口口① |--②-|
②口口口 |③---|
①③③② |----|
47
③口口④ |①---|
①④③② |②---|
③②①④ |③---|
①口口② |④---|
48
口口口口 |①---|
②口口② |②---|
口口口口
①口口①

③口③口
口④口口
口③口口 |③---|
④口④口 |④---|
49
③①③① |①---|
口口②口 |--②-|
口③①口 |③---|
口②口② |----|
50
口⑧⑦⑥ |①-②-|
口口④⑤ |③-④-|
口③口口 |⑤-⑥-|
①②口口 |⑦-⑧-|
51
③口口④ |①---|
①④③② |②---|
③②①④ |③---|
①口口② |④---|
52
口口口口 |①---|
②口口② |②---|
口口口口
①口口①

③口③口
口④口口
口③口口 |③---|
④口④口 |④---|
53
③①③① |①---|
口口②口 |--②-|
口③①口 |③---|
口②口② |----|
54
口③③口 |①---|
②⑥⑥① |--②-|
口⑤⑤口 |③-④-|
①④④② |⑤-⑥-|
55
①口口① |①---|
②口口② |--②-|
①口口① |③---|
③口口③ |----|
56
①①①① |①---|
②②②② |②---|
③③③③ |③---|
④④④④ |④---|
57
①①①① |①---|
口口口口 |----|
口口口口
口口口口

口④口④
②口③口
口口口口 |--②-|
③口②口 |③-④-|
58
口口口口 |①---|
口口口口 |②---|
口②口②
口①口①

口口口口
口③口③
口口口口 |③---|
④⑤⑤④ |④-⑤-|
59
①口①口 |①---|
⑤⑤口口 |②-③-|
口口③② |--④-|
④④⑤⑤ |--⑤-|
60
②②⑤⑤ |--①-|
口口②口 |②-③-|
③③口① |--④-|
④④口口 |--⑤-|
61
口④④口 |----|
口③②口 |①---|
①④④① |②--③|
口②③口 |--④-|
62
③口口② |----|
①口口① |①---|
口口口口 |②---|
①口口① |③---|
63
④④④④ |①--②|
③③口口 |--③-|
口②口③ |④---|
①①口① |----|
64
口口口口 |①--②|
口口③③ |--③-|
③口②口
①口①①

④④④④
口口口口
口口⑤口 |④---|
口口口口 |--⑤-|
65
口口口口 |①--②|
③③口口 |--③-|
口②口③
①①口①

④④④④
口口口口
口口口口 |④---|
口⑤口口 |--⑤-|
66
⑤④口⑤ |①--②|
③口①① |--③-|
口②④④ |④---|
①口口口 |⑤---|
67
口口口口 |①--②|
③③口口 |--③-|
口②口③
①①口①

④④④④
口口口口
口⑤口口 |④---|
口口口口 |--⑤-|
68
口口口口 |①--②|
口口③③ |--③-|
③口②口
①口①①

④④④④
口口口口
口口⑤口 |④---|
口口口口 |--⑤-|
69
④④④④ |①--②|
③③口口 |--③-|
口②口③ |④---|
①①口① |----|
70
④④④④ |①---|
②②③③ |②-③-|
口口口口 |--④-|
①③②① |----|
71
口⑦⑧口 |①-②-|
口口口④ |③-④-|
口口口⑤ |⑤-⑥-|
①②③⑥ |⑦-⑧-|
72
④口口① |①-②-|
③口口口 |③-④-|
②口口口
口口口口

口口口⑧
口口口口
口口口口 |⑤-⑥-|
⑦⑥⑤口 |⑦-⑧-|
73
④⑤⑥口 |①-②-|
口口口① |③-④-|
⑧口②口 |⑤-⑥-|
⑦口口③ |⑦-⑧-|
74
口口口口 |①-②-|
①口口口 |③-④-|
口口口口
口④③②

口口口⑤
口口口⑥
口口⑦口 |⑤-⑥-|
口口口⑧ |⑦-⑧-|


不确定度: 0

最終更新:2012年11月16日 18:40