A Dance & A Beer
REDEMPTION 97

ADVANCED

Level: 6
BPM: 190
Notes: 489

1
口口口口 |----|
口口口口 |----|
口口口口 |----|
口口口口 |----|
2
③口口③ |①---|
①口口① |--②-|
口②②口 |----|
口口口口 |③---|
3
口口口口 |----|
口口口口 |--①-|
①口口② |②-③-|
③口口④ |④---|
4
口口口口 |①---|
②口口② |--②-|
③①①③ |----|
口口口口 |③---|
5
口口口口 |--①-|
口⑤⑥口 |②-③-|
口③④口 |④-⑤-|
口①②口 |⑥---|
6
③口口③ |①---|
②口口② |--②-|
①口口① |----|
口口口口 |③---|
7
口①②口 |①-②-|
口③④口 |③-④-|
口⑤⑥口 |⑤-⑥-|
口⑦口口 |⑦---|
8
⑦口口⑧ |①-②-|
⑤口口⑥ |③-④-|
③口口④ |⑤-⑥-|
①口口② |⑦-⑧-|
9
④④④④ |①---|
口③③③ |②---|
口②②口 |③---|
口①口口 |④---|
10
口口口口 |--①-|
口口口口 |②-③-|
口②口④ |④---|
①口③口 |----|
11
口④口口 |①---|
⑤口③② |②---|
①口口口 |③-④-|
口口口口 |⑤---|
12
口④口口 |--①-|
口③③口 |--②-|
口②②口 |--③-|
口①①口 |--④-|
13
口口①口 |①---|
②口口② |②---|
③口口③ |③---|
口口口口 |----|
14
口口口口 |--①-|
口口口口 |②-③-|
口②口④ |④---|
①口③口 |----|
15
口④口口 |①---|
⑤口③② |②---|
①口口口 |③-④-|
口口口口 |⑤---|
16
口④口口 |--①-|
口③③口 |--②-|
口②②口 |--③-|
口①①口 |--④-|
17
口口①口 |①---|
②口口② |②---|
③口口③ |③---|
口口口口 |----|
18
④口口⑤ |①---|
口③口口 |②---|
口口②口 |③---|
口①口口 |④-⑤-|
19
口口口口 |--①-|
②口口① |②---|
口口口口 |③---|
③口④⑤ |④-⑤-|
20
口口⑤④ |--①-|
③口口③ |②---|
口②①口 |③---|
口口口口 |④-⑤-|
21
口①口口 |①---|
口口口口 |----|
口口口口 |----|
口口口口 |----|
22
④口口④ |①---|
口口③口 |②---|
口②口口 |③---|
口口①口 |--④-|
23
口口口口 |--①-|
①口口① |--②-|
②口口② |--③-|
③口口③ |----|
24
口①②口 |①-②-|
口③④口 |③-④-|
口⑤⑥口 |⑤-⑥-|
口⑦⑧口 |⑦-⑧-|
25
口口口口 |①---|
口口口口 |----|
口口口口 |----|
①口口口 |----|
26
口口①口 |①---|
口②口口 |②---|
④口③口 |③---|
口口口口 |--④-|
27
口口口口 |--①-|
口②③口 |--②-|
口口口① |③---|
口口口口 |----|
28
口口口④ |①---|
③③口口 |②---|
②②口口 |③---|
①①口口 |--④-|
29
①口口口 |--①-|
口③②口 |--②-|
口口⑤④ |③---|
口口口口 |④-⑤-|
30
口口口口 |①---|
③口口② |②---|
④①口口 |③---|
口口口口 |--④-|
31
口口口口 |--①-|
口口口口 |②-③-|
口③④口 |④---|
口①②口 |----|
32
口④口口 |①---|
③③口口 |②---|
②②口口 |③---|
①①口口 |--④-|
33
口口①口 |--①-|
⑤口口④ |--②-|
②口口③ |③---|
口口口口 |④-⑤-|
34
口口口口 |----|
口口口口 |①-②-|
口①口③ |③---|
口口②口 |----|
35
口④口口 |①---|
⑤口③② |②---|
①口口口 |③-④-|
口口口口 |⑤---|
36
口④口口 |--①-|
口③③口 |--②-|
口②②口 |--③-|
口①①口 |--④-|
37
口口①口 |①---|
②口口② |②---|
③口口③ |③---|
口口口口 |----|
38
口口口口 |--①-|
口口口口 |②-③-|
口②口④ |④---|
①口③口 |----|
39
口④口口 |①---|
⑤口③② |②---|
①口口口 |③-④-|
口口口口 |⑤---|
40
口④口口 |--①-|
口③③口 |--②-|
口②②口 |--③-|
口①①口 |--④-|
41
口口①口 |①---|
②口口② |②---|
③口口③ |③---|
口口口口 |----|
42
④口口⑤ |①---|
口③口口 |②---|
口口②口 |③---|
口①口口 |④-⑤-|
43
口口口口 |--①-|
②口口① |②---|
口口口口 |③---|
③口④⑤ |④-⑤-|
44
口口⑥⑤ |--①-|
口④③口 |②-③-|
口②①口 |④---|
口口口口 |⑤-⑥-|
45
口①口口 |①---|
口口口口 |----|
口口口口 |----|
口口口口 |----|
46
④口口④ |①---|
口口③口 |②---|
口②口口 |③---|
口口①口 |--④-|
47
口口口口 |--①-|
①口口① |--②-|
②口口② |--③-|
③口口③ |----|
48
口①②口 |①-②-|
口③④口 |③-④-|
口⑤⑥口 |⑤-⑥-|
口⑦⑧口 |⑦-⑧-|
49
口口口口 |①---|
口口口口 |----|
口口口口 |----|
①口口口 |----|
50
口口①口 |①---|
口②口口 |②---|
④口③口 |③---|
口口口口 |--④-|
51
口口口口 |--①-|
口②③口 |--②-|
口口口① |③---|
口口口口 |----|
52
口口口④ |①---|
③③口口 |②---|
②②口口 |③---|
①①口口 |--④-|
53
①口口口 |--①-|
口③②口 |--②-|
口口⑤④ |③---|
口口口口 |④-⑤-|
54
口口口口 |①---|
③口口② |②---|
④①口口 |③---|
口口口口 |--④-|
55
口口口口 |--①-|
口口口口 |②-③-|
口③④口 |④---|
口①②口 |----|
56
④口口口 |①---|
③③口口 |②---|
②②口口 |③---|
①①口口 |--④-|
57
口口口① |--①-|
口②③口 |--②-|
口⑤④口 |③---|
口口口口 |④-⑤-|
58
①口口口 |----|
口口口② |----|
口口口口 |①---|
口口口口 |②---|
59
口口口口 |①---|
口口口口 |--②-|
①口口口 |--③-|
口②③口 |----|
60
①口口② |①-②-|
③口口③ |----|
④口口④ |③---|
口口口口 |④---|
61
口口口口 |①---|
口①①口 |②-③-|
口②③口 |--④-|
口④④口 |----|
62
口口口口 |----|
口口口口 |----|
②口口② |①---|
①口口① |②---|
63
口①①口 |①---|
口②③口 |②-③-|
口⑤④口 |--④-|
口口口口 |⑤---|
64
口口口口 |----|
口口口口 |----|
口口口口 |①-②-|
①②③④ |③-④-|
65
口口口口 |①-②-|
⑤④③⑤ |--③-|
口①②口 |④---|
口口口口 |⑤---|
66
口口口口 |①---|
口口口口 |----|
①③③① |②---|
口②②口 |③---|
67
①口口① |①---|
口②③口 |②-③-|
⑤口口④ |--④-|
口口口口 |⑤---|
68
①②③④ |----|
口口口口 |----|
口口口口 |①-②-|
口口口口 |③-④-|
69
口口口口 |①-②-|
④①②③ |--③-|
口⑤⑤口 |④---|
口口口口 |⑤---|
70
口口口口 |①---|
口口口口 |----|
③口口③ |②---|
②①①② |③---|
71
口①①口 |①---|
口②③口 |②-③-|
口⑤④口 |--④-|
口口口口 |⑤---|
72
口口口口 |----|
口口口口 |----|
口口口口 |①-②-|
①②③④ |③-④-|
73
口口口口 |①-②-|
⑤④③⑤ |--③-|
口①②口 |④---|
口口口口 |⑤---|
74
口口口口 |①---|
口口口口 |----|
①③③① |②---|
口②②口 |③---|
75
①口口① |①---|
口②③口 |②-③-|
口⑤④口 |--④-|
口口口口 |⑤---|
76
①②③④ |----|
口口口口 |----|
口口口口 |①-②-|
口口口口 |③-④-|
77
口口口口 |①-②-|
④①②③ |--③-|
口⑤⑤口 |④---|
口口口口 |⑤---|
78
口口口口 |①---|
口③③口 |----|
②③③② |②---|
②①①② |③---|
79
①①①① |①---|
②口口③ |②-③-|
⑤口口④ |--④-|
口口口口 |⑤---|
80
口口口口 |----|
口口口口 |----|
口口口口 |①-②-|
①②③④ |③-④-|
81
口口口口 |①-②-|
⑤④③⑤ |--③-|
口①②口 |④---|
口口口口 |⑤---|
82
口口口口 |①---|
③口口③ |----|
①③③① |②---|
②②②② |③---|
83
①①①① |①---|
口②③口 |②-③-|
⑤口口④ |--④-|
口口口口 |⑤---|
84
①②③④ |----|
口口口口 |----|
口口口口 |①-②-|
口口口口 |③-④-|
85
口口口口 |①-②-|
口①②口 |--③-|
④⑤⑤③ |④---|
口口口口 |⑤---|
86
③口口③ |①---|
口口口口 |--②-|
②口口② |----|
口①①口 |③---|
87
口⑦口口 |--①-|
口⑤⑥口 |②-③-|
口③④口 |④-⑤-|
口①②口 |⑥-⑦-|
88
②口①口 |①-②-|
③口口③ |--③-|
④口口④ |----|
口口口口 |④---|
89
⑦口口口 |--①-|
⑤口口⑥ |②-③-|
口③④口 |④-⑤-|
口①②口 |⑥-⑦-|
90
口口口① |①---|
④②③④ |②-③-|
口口口口 |----|
口口口口 |④---|
91
口口口口 |----|
口口①口 |--①-|
②③④口 |--②-|
口口口口 |③-④-|
92
③口口③ |①---|
口③③口 |--②-|
口口口① |----|
口②②口 |--③-|


不确定度: 0

最終更新:2012年11月16日 18:40