DOUBLE IMPACT
DOUBLE IMPACT

BASIC

Level: 5
BPM: 265
Notes: 372

1
口口口口 |----|
口口口口 |----|
口口口口 |----|
口口口口 |----|
2
口口口口 |----|
口口口口 |----|
口口口口 |----|
口口口口 |----|
3
口口口口 |①---|
口口口口 |----|
口口口口 |----|
口①①口 |----|
4
口口口口 |----|
口口口口 |----|
口口口口 |----|
口口口口 |----|
5
口口口口 |①---|
口口口口 |----|
口口口口 |----|
口①①口 |----|
6
口口口口 |----|
口口口口 |----|
口口口口 |----|
口口口口 |----|
7
口口口口 |①---|
②口口② |----|
口口口口 |----|
口①①口 |②---|
8
口口口口 |----|
口口口口 |----|
口口口口 |----|
口口口口 |----|
9
口口口口 |①---|
口口口口 |----|
口①①口 |----|
口口口口 |----|
10
口口口口 |①---|
口①①口 |----|
口口口口 |----|
口口口口 |----|
11
①②口口 |①---|
口口口口 |----|
口口口口 |②---|
口口口口 |----|
12
口口①② |①---|
口口口口 |----|
口口口口 |②---|
口口口口 |----|
13
口口口口 |①---|
口口口口 |----|
口口口口 |②---|
口口②① |----|
14
口口口口 |①---|
口口口口 |----|
口口口口 |②---|
②①口口 |----|
15
口口口口 |①---|
口①①口 |----|
②口口② |②---|
口口口口 |----|
16
①口口① |①---|
口②②口 |----|
口口口口 |②---|
口口口口 |----|
17
②口口口 |①---|
口口口口 |----|
口口口口 |②---|
①口口口 |----|
18
口口口② |①---|
口口口口 |----|
口口口口 |②---|
口口口① |----|
19
①②口口 |①---|
③④口口 |②---|
口口口口 |③---|
口口口口 |④---|
20
口口口口 |①---|
口口口口 |②---|
①②口口 |③---|
③④口口 |④---|
21
口口②① |①---|
口口④③ |②---|
口口口口 |③---|
口口口口 |④---|
22
口口口口 |①---|
口口口口 |②---|
口口②① |③---|
口口④③ |④---|
23
口①②口 |①---|
口③④口 |②---|
口口口口 |③---|
口口口口 |④---|
24
口口口口 |①---|
口口口口 |②---|
口①②口 |③---|
口③④口 |④---|
25
①口口① |①---|
②口口② |②---|
③口口③ |③---|
④口口④ |④---|
26
口①①口 |①---|
口②②口 |②---|
口③③口 |③---|
口④④口 |④---|
27
①②口口 |①---|
③④口口 |②---|
口口口口 |③---|
口口口口 |④---|
28
口口口口 |①---|
口口口口 |②---|
①②口口 |③---|
③④口口 |④---|
29
口口②① |①---|
口口④③ |②---|
口口口口 |③---|
口口口口 |④---|
30
口口口口 |①---|
口口口口 |②---|
口口②① |③---|
口口④③ |④---|
31
口①②口 |①---|
口③④口 |②---|
口口口口 |③---|
口口口口 |④---|
32
口口口口 |①---|
口口口口 |②---|
口①②口 |③---|
口③④口 |④---|
33
①口口① |①---|
②口口② |②---|
③口口③ |③---|
④口口④ |④---|
34
口①①口 |①---|
口②②口 |②---|
口③③口 |③---|
口④④口 |④---|
35
口口口口 |①---|
口口口口 |②---|
③口口④ |③---|
①口口② |④---|
36
口①②口 |①---|
③口口④ |②---|
口口口口 |③---|
口口口口 |④---|
37
口口口口 |①---|
口口口口 |②---|
口③④口 |③---|
①口口② |④---|
38
①口口② |①---|
口③④口 |②---|
口口口口 |③---|
口口口口 |④---|
39
口①②口 |①---|
③口口④ |②---|
口口口口 |③---|
口口口口 |④---|
40
口口口口 |①---|
口口口口 |②---|
①口口② |③---|
口③④口 |④---|
41
口口口口 |①---|
口口口口 |----|
口①①口 |----|
口口口口 |----|
42
口口口口 |①---|
口①①口 |----|
口口口口 |----|
口口口口 |----|
43
口口口口 |①---|
口口口口 |②---|
③口口④ |③---|
①口口② |④---|
44
口①②口 |①---|
③口口④ |②---|
口口口口 |③---|
口口口口 |④---|
45
口口口口 |①---|
口口口口 |②---|
口③④口 |③---|
①口口② |④---|
46
①口口② |①---|
口③④口 |②---|
口口口口 |③---|
口口口口 |④---|
47
口①②口 |①---|
③口口④ |②---|
口口口口 |③---|
口口口口 |④---|
48
口口口口 |①---|
口口口口 |②---|
①口口② |③---|
口③④口 |④---|
49
口口口口 |①---|
口口口口 |----|
口①①口 |----|
口口口口 |----|
50
①口口① |①---|
口口口口 |----|
口口口口 |----|
口口口口 |----|
51
口口口口 |①---|
①口口① |----|
口口口口 |----|
口口口口 |----|
52
口口口口 |----|
口①口口 |----|
口口口口 |①---|
口口口口 |----|
53
口口口口 |①---|
口口口口 |----|
①口口① |----|
口口口口 |----|
54
口口口口 |----|
口口口口 |----|
口口口口 |①---|
口①①口 |----|
55
口口口口 |①---|
口口口口 |----|
口①①口 |----|
口口口口 |----|
56
口口口口 |①---|
口口口口 |----|
①口口① |----|
口口口口 |----|
57
口口口口 |①---|
口口③口 |--②-|
口②口口 |----|
①口口口 |③---|
58
口口口口 |----|
口口口口 |----|
口口口口 |----|
口口口口 |----|
59
口口口口 |①---|
①口口① |----|
口口口口 |----|
口口口口 |----|
60
口口口口 |----|
口①口口 |----|
口口口口 |①---|
口口口口 |----|
61
口口口口 |①---|
口口口口 |----|
①口口① |----|
口口口口 |----|
62
口口口口 |----|
口口口口 |----|
口口口口 |①---|
口①①口 |----|
63
口口口口 |①---|
①口口① |----|
口口口口 |----|
口口口口 |----|
64
口口口口 |①---|
口口口口 |----|
口①①口 |----|
口口口口 |----|
65
口口口口 |①---|
口口③口 |--②-|
口②口口 |----|
①口口口 |③---|
66
口口口口 |----|
口口口口 |----|
口口口口 |----|
口口口口 |----|
67
口口口口 |①---|
①口口① |----|
口口口口 |----|
口口口口 |----|
68
口口口口 |①---|
口口口口 |----|
口①②口 |②---|
口口口口 |----|
69
口口口口 |①---|
口①①口 |----|
口口口口 |----|
口口口口 |----|
70
①口口① |①---|
口口口口 |--②-|
②口口② |----|
③口口③ |③---|
71
口口口口 |①---|
口口口口 |②---|
口③④口 |③---|
口①②口 |④---|
72
口③口口 |①---|
口①②口 |②---|
口口口口 |③---|
口口口口 |----|
73
①口口② |①---|
③口口④ |②---|
口口口口 |③---|
口口口口 |④---|
74
口①②口 |①---|
口③④口 |②---|
口口口口 |③---|
口口口口 |④---|
75
口口口口 |①---|
口口口口 |----|
口①口口 |②---|
②口口③ |③---|
76
口口口口 |①---|
③口口④ |②---|
①口口② |③---|
口口口口 |④---|
77
口口口口 |①---|
口①①口 |----|
口口口口 |----|
口口口口 |----|
78
口①①口 |①---|
口②②口 |----|
口口口口 |②---|
口口口口 |----|
79
口口口口 |①---|
口口口口 |②---|
口③④口 |③---|
口①②口 |④---|
80
口口口口 |①---|
口口口口 |②---|
③口口④ |③---|
①口口② |④---|
81
口③④口 |①---|
口①②口 |②---|
口口口口 |③---|
口口口口 |④---|
82
③口口口 |①---|
①口口② |②---|
口口口口 |③---|
口口口口 |----|
83
口口口口 |①---|
口口口口 |②---|
①口口② |③---|
③口口④ |④---|
84
口口口口 |①---|
口口口口 |②---|
口③④口 |③---|
口①②口 |④---|
85
口③④口 |①---|
口①②口 |②---|
口口口口 |③---|
口口口口 |④---|
86
①口口② |①---|
③口口口 |②---|
口口口口 |③---|
口口口口 |----|
87
口①②口 |①---|
口③④口 |②---|
口口口口 |③---|
口口口口 |④---|
88
口口口口 |①---|
口口口口 |②---|
口①②口 |③---|
口③④口 |④---|
89
口口口口 |①---|
口口口口 |②---|
③口口④ |③---|
①口口② |④---|
90
③口口④ |①---|
①口口② |②---|
口口口口 |③---|
口口口口 |④---|
91
口①②口 |①---|
口③④口 |②---|
口口口口 |③---|
口口口口 |④---|
92
口口口口 |①---|
口口口口 |②---|
口①②口 |③---|
口③④口 |④---|
93
口口口口 |①---|
③口口④ |②---|
①口口② |③---|
口口口口 |④---|
94
①②口③ |①---|
口口口口 |--②-|
口口口口 |----|
口口口口 |③---|
95
口口口口 |①---|
口①②口 |②---|
口③④口 |③---|
口口口口 |④---|
96
口口口口 |①---|
①口口② |②---|
③口口④ |③---|
口口口口 |④---|
97
①口口② |①---|
口③④口 |②---|
口口口口 |③---|
口口口口 |④---|
98
口口口口 |①---|
口口口口 |②---|
口①②口 |③---|
③口口口 |----|
99
口口口口 |①---|
口口口口 |②---|
③口口④ |③---|
口①②口 |④---|
100
口口口口 |①---|
③口口④ |②---|
口①②口 |③---|
口口口口 |④---|
101
口③④口 |①---|
口①②口 |②---|
口口口口 |③---|
口口口口 |④---|
102
①口口口 |①---|
口口口口 |----|
口口口口 |----|
口口口口 |----|
103
口口口口 |①---|
口口口口 |②---|
③口口④ |③---|
①口口② |④---|
104
口口口口 |①---|
口口口口 |②---|
口③④口 |③---|
口①②口 |④---|
105
③口口④ |①---|
①口口② |②---|
口口口口 |③---|
口口口口 |④---|
106
口口口口 |①---|
口①②口 |②---|
口③④口 |③---|
口口口口 |④---|
107
口口口口 |①---|
口口口口 |②---|
口口口口 |③---|
③①②④ |④---|
108
口口口口 |①---|
③口口④ |②---|
①口口② |③---|
口口口口 |④---|
109
①口口口 |①---|
口②口口 |----|
口口口口 |----|
口口口口 |②---|
110
口口口① |①---|
口口口口 |----|
口口口口 |----|
口口口口 |----|
111
口口口口 |----|
口口口口 |----|
口口口口 |----|
口口口口 |----|
112
口口口口 |----|
口口口口 |----|
口口口口 |----|
口口口口 |----|
113
口口口口 |①---|
口口口口 |----|
口口口口 |----|
口①①口 |----|
114
口口口口 |----|
口口口口 |----|
口口口口 |----|
口口口口 |----|
115
口口口口 |①---|
口口口口 |----|
口口口口 |----|
口①①口 |----|
116
口口口口 |----|
口口口口 |----|
口口口口 |----|
口口口口 |----|
117
口口口口 |①---|
口①①口 |----|
口口口口 |②---|
口②②口 |----|
118
口口口口 |①---|
口口口口 |----|
②①①② |②---|
口口口口 |----|
119
口口口口 |①---|
①口口① |----|
口口口口 |----|
口口口口 |----|
120
①口口① |①---|
口口口口 |----|
口口口口 |----|
口口口口 |----|
121
口①口口 |①-②-|
口口②口 |③-④-|
口③口口 |----|
口口④口 |----|

不确定度: 0

最終更新:2012年11月06日 22:27