A Dance & A Beer
REDEMPTION 97

EXTREME

Level: 8
BPM: 190
Notes: 649

1
口口口口 |----|
口口口口 |----|
口口口口 |----|
口口口口 |----|
2
①口口① |①---|
②③③② |--②-|
③①①③ |----|
②口口② |③---|
3
④口口② |----|
口口口口 |--①-|
口口口口 |②-③-|
口①③口 |④---|
4
口②②口 |①---|
③①①③ |--②-|
①②②① |----|
口③③口 |③---|
5
⑥口④⑥ |--①-|
口口口口 |②-③-|
③⑤口口 |④-⑤-|
①口口② |⑥---|
6
口②②口 |①---|
③①①③ |--②-|
②口口② |----|
③①①③ |③---|
7
③⑤口④ |①②③④|
口①②口 |⑤-⑥-|
口⑦⑥口 |⑦-⑧-|
口⑨⑧口 |⑨---|
8
⑤口口④ |①-②-|
③口口⑥ |③-④-|
⑦口口② |⑤-⑥-|
①口口⑧ |⑦-⑧-|
9
口口口④ |①---|
口③口④ |②---|
口③②④ |③---|
①③②④ |④---|
10
口④③口 |--①-|
②④③口 |②-③-|
②口①口 |④---|
口口①口 |----|
11
口口口② |①---|
③口口口 |②---|
口①口④ |③-④-|
⑤口口口 |⑤---|
12
④口口口 |--①-|
口③③口 |--②-|
口②②口 |--③-|
口①①口 |--④-|
13
口口口① |①---|
口口口② |②---|
③口②口 |③---|
口③口口 |----|
14
④口③口 |--①-|
④②③口 |②-③-|
口②①口 |④---|
口口①口 |----|
15
口口口② |①---|
③口口口 |②---|
①口口④ |③-④-|
⑤口口口 |⑤---|
16
口口口④ |--①-|
口③③口 |--②-|
口②②口 |--③-|
口①①口 |--④-|
17
①口口口 |①---|
口口口② |②---|
③口②口 |③---|
口③口口 |----|
18
口④⑤③ |①---|
口②①口 |②---|
口①②口 |③---|
③口口口 |④-⑤-|
19
口口口口 |--①-|
⑤口口口 |②---|
①③③② |③---|
口口④口 |④-⑤-|
20
口③③口 |--①-|
④口口② |②---|
口口口⑤ |③---|
口①口口 |④-⑤-|
21
口口口口 |①---|
口口口口 |----|
口口口口 |----|
①口口口 |----|
22
③口④口 |①---|
口①②口 |②---|
④②①口 |③---|
口口口③ |--④-|
23
口①口口 |--①-|
③口口② |--②-|
口口口① |--③-|
口②③口 |----|
24
⑤口口⑥ |①-②-|
⑦①②⑧ |③-④-|
口③④口 |⑤-⑥-|
口口口口 |⑦-⑧-|
25
⑦⑧⑨口 |①-②-|
口口口口 |③-④⑤|
①④⑤⑥ |⑥-⑦-|
③口口② |⑧-⑨-|
26
③口口口 |①---|
口④②① |②---|
①②④口 |③---|
口口口③ |--④-|
27
口①③口 |--①-|
口口口口 |--②-|
口口口口 |③---|
口②①口 |----|
28
③③口口 |①---|
②②口④ |②---|
①①④口 |③---|
口口口口 |--④-|
29
口口口口 |--①-|
口口口口 |--②-|
④⑤口① |③---|
②口①③ |④-⑤-|
30
口④②口 |①---|
③①④口 |②---|
口口①③ |③---|
口②口口 |--④-|
31
口口口口 |--①-|
口口口口 |②-③-|
口①④口 |④---|
口③②口 |----|
32
③③口口 |①---|
②②口④ |②---|
①①④口 |③---|
口口口口 |--④-|
33
口口口口 |--①-|
口口口口 |--②-|
口④口① |③---|
②⑤①③ |④-⑤-|
34
口③口口 |----|
口③②口 |①-②-|
①口②口 |③---|
①口口口 |----|
35
口口口② |①---|
③口口口 |②---|
口①口④ |③-④-|
⑤口口口 |⑤---|
36
④口口口 |--①-|
口③③口 |--②-|
口②②口 |--③-|
口①①口 |--④-|
37
口口口① |①---|
口口口② |②---|
③口②口 |③---|
口③口口 |----|
38
④口③口 |--①-|
④②③口 |②-③-|
口②①口 |④---|
口口①口 |----|
39
口口口② |①---|
③口口口 |②---|
①口口④ |③-④-|
⑤口口口 |⑤---|
40
口口口④ |--①-|
口③③口 |--②-|
口②②口 |--③-|
口①①口 |--④-|
41
①口口口 |①---|
口口口② |②---|
③口②口 |③---|
口③口口 |----|
42
口④⑤③ |①---|
口②①口 |②---|
口①②口 |③---|
③口口口 |④-⑤-|
43
口口口口 |--①-|
⑤口口口 |②---|
②③③① |③---|
口口④口 |④-⑤-|
44
口口口口 |--①-|
⑤④口② |②-③-|
口口③⑥ |④---|
口①口口 |⑤-⑥-|
45
口口口口 |①---|
口口口口 |----|
口口口口 |----|
①口口口 |----|
46
③口④口 |①---|
口①②口 |②---|
④②①口 |③---|
口口口③ |--④-|
47
口①口口 |--①-|
③口口② |--②-|
口口口① |--③-|
口②③口 |----|
48
⑤口口⑥ |①-②-|
⑦①②⑧ |③-④-|
口③④口 |⑤-⑥-|
口口口口 |⑦-⑧-|
49
⑦⑧⑨口 |①-②-|
口口口口 |③-④⑤|
①④⑤⑥ |⑥-⑦-|
③口口② |⑧-⑨-|
50
③口口口 |①---|
口④②① |②---|
①②④口 |③---|
口口口③ |--④-|
51
口①③口 |--①-|
口口口口 |--②-|
口口口口 |③---|
口②①口 |----|
52
③③口口 |①---|
②②口④ |②---|
①①④口 |③---|
口口口口 |--④-|
53
口口口口 |--①-|
口口口口 |--②-|
④⑤口① |③---|
②口①③ |④-⑤-|
54
口④②口 |①---|
③①④口 |②---|
口口①③ |③---|
口②口口 |--④-|
55
口口口口 |--①-|
口口口口 |②-③-|
口①④口 |④---|
口③②口 |----|
56
③③口口 |①---|
②②口④ |②---|
①①④口 |③---|
口口口口 |--④-|
57
口口口口 |--①-|
口口口口 |--②-|
④⑤口① |③---|
②口①③ |④-⑤-|
58
口口口口 |①---|
口①①口 |----|
口口③口 |②---|
口②口口 |③---|
59
口口口口 |①---|
②①口③ |--②-|
口口口口 |--③-|
口口口口 |----|
60
口①②口 |①-②-|
口口口口 |----|
③口口③ |③---|
④口口④ |④---|
61
口口口口 |①---|
口①①口 |②-③-|
口②③口 |--④-|
口④④口 |----|
62
口口口① |----|
②口口口 |----|
口口口② |①---|
①口口口 |②---|
63
口⑤③口 |①---|
口②④① |②-③-|
①⑤③口 |--④-|
口②④口 |⑤---|
64
口口口口 |----|
口口口口 |----|
①口口② |①-②-|
③口口④ |③-④-|
65
②②口① |①-②-|
③口④④ |--③-|
口⑤⑤口 |④---|
口口口口 |⑤---|
66
②口口口 |①---|
口口口③ |----|
③口口口 |②---|
①①口② |③---|
67
口③⑤口 |①---|
①④②口 |②-③-|
口③⑤① |--④-|
口④②口 |⑤---|
68
口口口口 |----|
口口口口 |----|
①口口② |①-②-|
③口口④ |③-④-|
69
①口②② |①-②-|
④④口③ |--③-|
口⑤⑤口 |④---|
口口口口 |⑤---|
70
口口口② |①---|
③口口口 |----|
口口口③ |②---|
②口①① |③---|
71
口②④口 |①---|
口⑤③① |②-③-|
①②④口 |--④-|
口⑤③口 |⑤---|
72
口口口口 |----|
口口口口 |----|
①口口② |①-②-|
③口口④ |③-④-|
73
②②口① |①-②-|
③口④④ |--③-|
口⑤⑤口 |④---|
口口口口 |⑤---|
74
②口口口 |①---|
口口口③ |----|
③口口口 |②---|
①①口② |③---|
75
口④②口 |①---|
①③⑤口 |②-③-|
口④②① |--④-|
口③⑤口 |⑤---|
76
口口口口 |----|
口口口口 |----|
①口口② |①-②-|
③口口④ |③-④-|
77
①口②② |①-②-|
④④口③ |--③-|
口⑤⑤口 |④---|
口口口口 |⑤---|
78
口口②② |①---|
③口③口 |----|
口③口③ |②---|
②②①① |③---|
79
④④⑤⑤ |①---|
口①口① |②-③-|
①口①口 |--④-|
③③②② |⑤---|
80
口口口口 |----|
口口口口 |----|
①口口② |①-②-|
③口口④ |③-④-|
81
②②口① |①-②-|
③口④④ |--③-|
口⑤⑤口 |④---|
口口口口 |⑤---|
82
②②口口 |①---|
口③口③ |----|
③口③口 |②---|
①①②② |③---|
83
⑤⑤④④ |①---|
①口①口 |②-③-|
口①口① |--④-|
②②③③ |⑤---|
84
口口口口 |----|
口口口口 |----|
①口口② |①-②-|
③口口④ |③-④-|
85
①口②② |①-②-|
④④口③ |--③-|
口⑤⑤口 |④---|
口口口口 |⑤---|
86
口口口口 |①---|
②③③② |--②-|
①③③① |----|
②①①② |③---|
87
⑦口口④ |--①-|
口口口② |②-③-|
①口口口 |④-⑤-|
⑤③⑥口 |⑥-⑦-|
88
口③③口 |①-②-|
④①①④ |--③-|
①③③① |----|
口④④② |④---|
89
⑥口④⑦ |--①-|
口口口口 |②-③-|
③⑤口口 |④-⑤-|
①口口② |⑥-⑦-|
90
口③③口 |①---|
④①①④ |②-③-|
③口②③ |----|
④①①④ |④---|
91
③⑤口④ |①②③④|
口①②口 |⑤-⑥-|
⑨⑦⑥⑩ |⑦-⑧-|
口口⑧口 |⑨-⑩-|
92
口②②口 |①---|
③①①③ |--②-|
口②②口 |----|
口③③口 |--③-|


不确定度: 0

最終更新:2012年11月16日 18:37