歩いて帰ろう
斉藤和義

BASIC

Level: 2
BPM: 191
Notes: 229

1
口口口口 |----|
口口口口 |----|
口口口口 |----|
口口口口 |----|
2
口口口口 |①---|
口口口口 |----|
口②②口 |②---|
口①①口 |----|
3
口口口口 |①---|
②口口② |----|
①口口① |②---|
口口口口 |----|
4
口口口口 |①---|
口口口口 |----|
口②②口 |②---|
口①①口 |----|
5
口口口口 |①---|
②口口② |----|
①口口① |②---|
口口口口 |----|
6
口②②口 |①---|
口①①口 |----|
口口口口 |②---|
口口口口 |----|
7
②口口② |①---|
①口口① |----|
口口口口 |②---|
口口口口 |----|
8
口②②口 |①---|
口①①口 |----|
口口口口 |②---|
口口口口 |----|
9
②口口② |①---|
①口口① |----|
口口口口 |②---|
口口口口 |----|
10
口口口口 |①---|
口②②口 |----|
口①①口 |②---|
口口口口 |----|
11
②口口② |①---|
①口口① |----|
口口口口 |②---|
口口口口 |----|
12
口口口口 |①---|
口②②口 |----|
口①①口 |②---|
口口口口 |----|
13
②口口② |①---|
①口口① |----|
口口口口 |②---|
口口口口 |----|
14
口口口口 |----|
口口口口 |①---|
口口口① |----|
口口口口 |----|
15
口口口口 |①---|
口口口口 |----|
口口①口 |----|
口口口口 |----|
16
口口口口 |①---|
②口口口 |----|
①口口口 |②---|
口口口口 |----|
17
口口口口 |----|
口口口口 |----|
口口口口 |----|
口口口口 |----|
18
口口口口 |----|
口口口口 |①---|
口口口口 |----|
①口口口 |----|
19
口口口口 |①---|
口口口口 |----|
口口口口 |----|
口①口口 |----|
20
口口口口 |①---|
②②口口 |----|
口口①① |②---|
口口口口 |----|
21
②②①① |①---|
口口口口 |----|
口口口口 |②---|
口口口口 |----|
22
口口口口 |----|
口口口口 |①---|
口口口① |----|
口口口口 |----|
23
口口口口 |①---|
口口口口 |----|
口口①口 |----|
口口口口 |----|
24
口口口口 |①---|
②口口口 |----|
①口口口 |②---|
口口口口 |----|
25
口口口口 |----|
口①口口 |----|
口口口口 |①---|
口口口口 |----|
26
口口口口 |①---|
口口口口 |----|
口①口口 |②---|
口②口口 |----|
27
口口口口 |①---|
②②口口 |----|
口口①① |②---|
口口口口 |----|
28
口口①① |①---|
口口口口 |----|
口口口口 |----|
口口口口 |----|
29
口口口口 |----|
口口口口 |----|
口口口口 |①---|
口①口口 |----|
30
口口口口 |①---|
口口口口 |----|
口②②口 |②---|
口口①口 |----|
31
口口口口 |①---|
②口口② |----|
①口口① |②---|
口口口口 |----|
32
口口口口 |①---|
口口口口 |----|
口②②口 |②---|
口①①口 |----|
33
口口口口 |①---|
②口口② |----|
①口口① |②---|
口口口口 |----|
34
口口口口 |----|
口口口口 |①---|
口口口① |----|
口口口口 |----|
35
口口口口 |①---|
口口口口 |----|
口口①口 |----|
口口口口 |----|
36
口口口口 |①---|
②口口口 |----|
①口口口 |②---|
口口口口 |----|
37
口口口口 |----|
口口口口 |----|
口口口口 |----|
口口口口 |----|
38
口口口口 |----|
口口口口 |①---|
口口口口 |----|
①口口口 |----|
39
口口口口 |①---|
口口口口 |----|
口口口口 |----|
口①口口 |----|
40
口口口口 |①---|
②②口口 |----|
口口①① |②---|
口口口口 |----|
41
②②①① |①---|
口口口口 |----|
口口口口 |②---|
口口口口 |----|
42
口口口口 |----|
口口口口 |①---|
口口口① |----|
口口口口 |----|
43
口口口口 |①---|
口口口口 |----|
口口①口 |----|
口口口口 |----|
44
口口口口 |①---|
②口口口 |----|
①口口口 |②---|
口口口口 |----|
45
口口口口 |----|
口①口口 |----|
口口口口 |①---|
口口口口 |----|
46
口口口口 |①---|
口口口口 |----|
口①口口 |②---|
口②口口 |----|
47
口口口口 |①---|
②②口口 |----|
口口①① |②---|
口口口口 |----|
48
口口①① |①---|
口口口口 |----|
口口口口 |----|
口口口口 |----|
49
口口口口 |----|
口口口口 |----|
口口口口 |①---|
口①口口 |----|
50
口口口口 |①---|
口口口口 |----|
口②②口 |②---|
口口①口 |----|
51
口口口口 |①---|
口口口口 |----|
①口口① |----|
口口口口 |----|
52
口口口口 |----|
口口口口 |①---|
口口口口 |②---|
口①②口 |----|
53
口口口口 |①---|
②口口② |----|
口①①口 |②---|
口口口口 |----|
54
口①①口 |①---|
口口口口 |----|
口口口口 |----|
口口口口 |----|
55
口口口口 |----|
口口口口 |----|
口口口口 |----|
口口口口 |----|
56
口口口口 |----|
口口口口 |①---|
口口口口 |②---|
口①②口 |----|
57
口口口口 |①---|
②口口② |----|
口①①口 |②---|
口口口口 |----|
58
①口口① |①---|
口口口口 |----|
口口口口 |----|
口口口口 |----|
59
口口口口 |----|
口口口口 |----|
口口口口 |----|
口口口口 |----|
60
口口口口 |----|
口口口口 |①---|
口口口口 |②---|
口②①口 |----|
61
口口口口 |①---|
②口口② |----|
口①①口 |②---|
口口口口 |----|
62
②①①② |①---|
口口口口 |----|
口口口口 |②---|
口口口口 |----|
63
口口口口 |----|
口口口口 |----|
口口口口 |----|
口①口口 |①---|
64
口口口口 |①---|
口口口口 |----|
口口口口 |②---|
②口①② |----|
65
口口口口 |①---|
口口口口 |----|
②①①② |②---|
口口口口 |----|
66
②②②② |①---|
①①①① |----|
口口口口 |②---|
口口口口 |----|
67
口口口口 |----|
口口口口 |----|
口口口口 |----|
口口口口 |----|
68
口口口口 |----|
口口口口 |①---|
口口口① |----|
口口口口 |----|
69
口口口口 |①---|
口口口口 |----|
口口①口 |----|
口口口口 |----|
70
口口口口 |①---|
②口口口 |----|
①口口口 |②---|
口口口口 |----|
71
口口口口 |----|
口口口口 |----|
口口口口 |----|
口口口口 |----|
72
口口口口 |----|
口口口口 |①---|
口口口口 |----|
①口口口 |----|
73
口口口口 |①---|
口口口口 |----|
口口口口 |----|
口①口口 |----|
74
口口口口 |①---|
②②口口 |----|
口口①① |②---|
口口口口 |----|
75
②②①① |①---|
口口口口 |----|
口口口口 |②---|
口口口口 |----|
76
口口口口 |----|
口口口口 |①---|
口口口① |----|
口口口口 |----|
77
口口口口 |①---|
口口口口 |----|
口口①口 |----|
口口口口 |----|
78
口口口口 |①---|
②口口口 |----|
①口口口 |②---|
口口口口 |----|
79
口口口口 |----|
口①口口 |----|
口口口口 |①---|
口口口口 |----|
80
口口口口 |①---|
口口口口 |----|
口①口口 |②---|
口②口口 |----|
81
口口口口 |①---|
②②口口 |----|
口口①① |②---|
口口口口 |----|
82
口口①① |①---|
口口口口 |----|
口口口口 |----|
口口口口 |----|
83
口口口口 |----|
口口口口 |----|
口口口口 |①---|
口①口口 |----|
84
口口口口 |①---|
口口口口 |----|
口②②口 |②---|
口口①口 |----|
85
口口口口 |①---|
②口口② |----|
①口口① |②---|
口口口口 |----|
86
口口口口 |①---|
口口口口 |----|
口②②口 |②---|
口①①口 |----|
87
口口口口 |①---|
②口口② |----|
①口口① |②---|
口口口口 |----|
88
口②②口 |①---|
口①①口 |----|
口口口口 |②---|
口口口口 |----|
89
②口口② |①---|
①口口① |----|
口口口口 |②---|
口口口口 |----|
90
③③③③ |①---|
②②②② |--②-|
①①①① |----|
口口口口 |③---|


不确定度: 0

最終更新:2012年11月16日 18:37