歩いて帰ろう
斉藤和義

ADVANCED

Level: 5
BPM: 191
Notes: 419

1
口口口口 |----|
口口口口 |----|
口口口口 |----|
口口口口 |----|
2
口口口口 |①---|
口③③口 |②---|
④②②④ |③---|
口①①口 |----④-|
3
④⑤③② |----①-|
①口口① |----②-|
口口口口 |③---④-|
口口口口 |⑤---|
4
口口口口 |①---|
口③③口 |②---|
④②②④ |③---|
口①①口 |----④-|
5
④⑤③② |----①-|
①口口① |----②-|
口口口口 |③---④-|
口口口口 |⑤---|
6
口口口口 |①---|
口③③口 |②---|
④②②④ |③---|
口①①口 |----④-|
7
④⑤③② |----①-|
①口口① |----②-|
口口口口 |③---④-|
口口口口 |⑤---|
8
口口口口 |①---|
口③③口 |②---|
④②②④ |③---|
口①①口 |----④-|
9
④⑤③② |----①-|
①口口① |----②-|
口口口口 |③---④-|
口口口口 |⑤---|
10
口口口口 |①---|
口③③口 |②---|
④②②④ |③---|
口①①口 |----④-|
11
④⑤③② |----①-|
①口口① |----②-|
口口口口 |③---④-|
口口口口 |⑤---|
12
口口口口 |①---|
口③③口 |②---|
④②②④ |③---|
口①①口 |----④-|
13
④⑤③② |----①-|
①口口① |----②-|
口口口口 |③---④-|
口口口口 |⑤---|
14
口口口口 |----|
口口口口 |①---|
④口口口 |②---③-|
③②口① |----④-|
15
口口口口 |----|
口口口③ |①---|
口口①② |②---|
口口口口 |③---|
16
口①口① |①---|
②口②口 |②---|
口③口③ |③---|
④口④口 |④---|
17
口口口口 |----|
口口口口 |----|
口口口口 |----|
口口口口 |----|
18
口口口口 |----|
口口口口 |①---|
①②口口 |②---③-|
口口③④ |----④-|
19
口口口口 |----|
口口口口 |①---|
口③②① |②---|
口口口口 |③---|
20
口口口口 |①---|
②②①① |----|
口口口口 |②---|
口口口口 |----|
21
口口口口 |①---|
口口口口 |----|
口①①口 |②---|
口②③口 |③---|
22
口口口口 |----|
口口口口 |①---|
④口口口 |②---③-|
③②口① |----④-|
23
口口口口 |----|
口口口③ |①---|
口口①② |②---|
口口口口 |③---|
24
口①口① |①---|
②口②口 |②---|
口③口③ |③---|
④口④口 |④---|
25
口口口口 |----|
口口口口 |----|
②口口口 |①---|
口口口① |②---|
26
口②②口 |①---|
①口口① |----|
口口口口 |②---|
口口口口 |----|
27
①口口② |①---|
口口口口 |----|
口①②口 |②---|
口口口口 |----|
28
口口口口 |①---|
口①①口 |----|
口口口口 |----|
口口口口 |----|
29
②①口口 |----|
③口口口 |----①-|
口口口口 |②---③-|
④口口口 |----④-|
30
口口口口 |①---|
口③③口 |②---|
④②②④ |③---|
口①①口 |----④-|
31
④⑤③② |----①-|
①口口① |----②-|
口口口口 |③---④-|
口口口口 |⑤---|
32
口口口口 |①---|
口③③口 |②---|
④②②④ |③---|
口①①口 |----④-|
33
④⑤③② |----①-|
①口口① |----②-|
口口口口 |③---④-|
口口口口 |⑤---|
34
口口口口 |----|
口口口口 |①---|
口口口④ |②---③-|
①口②③ |----④-|
35
口口口口 |----|
③口口口 |①---|
②①口口 |②---|
口口口口 |③---|
36
①口①口 |①---|
口②口② |②---|
③口③口 |③---|
口④口④ |④---|
37
口口口口 |----|
口口口口 |----|
口口口口 |----|
口口口口 |----|
38
口口口口 |----|
口口口口 |①---|
口口②① |②---③-|
④③口口 |----④-|
39
口口口口 |----|
口口口口 |①---|
①②③口 |②---|
口口口口 |③---|
40
口口口口 |①---|
①①②② |----|
口口口口 |②---|
口口口口 |----|
41
口口口口 |①---|
口口口口 |----|
口①①口 |②---|
口③②口 |③---|
42
口口口口 |----|
口口口口 |①---|
口口口④ |②---③-|
①口②③ |----④-|
43
口口口口 |----|
③口口口 |①---|
②①口口 |②---|
口口口口 |③---|
44
①口①口 |①---|
口②口② |②---|
③口③口 |③---|
口④口④ |④---|
45
口口口口 |----|
口口口口 |----|
口口口② |①---|
①口口口 |②---|
46
口②②口 |①---|
①口口① |----|
口口口口 |②---|
口口口口 |----|
47
②口口① |①---|
口口口口 |----|
口②①口 |②---|
口口口口 |----|
48
口口口口 |①---|
口①①口 |----|
口口口口 |----|
口口口口 |----|
49
口口①② |----|
口口口③ |----①-|
口口口口 |②---③-|
口口口④ |----④-|
50
口口口口 |①---|
④③③④ |②---|
④②②④ |③---|
口①①口 |----④-|
51
口口口口 |----|
口口口口 |----|
口口口口 |----|
口口口口 |----|
52
口口口口 |----|
④口口口 |①---|
③口②口 |②---③-|
口①口口 |----④-|
53
口口口口 |----|
口①③② |①---|
口口口口 |②---|
口口口口 |③---|
54
口口口口 |①---|
口口口口 |----②-|
口①①口 |----|
口②口口 |----|
55
口口口口 |----|
口口口口 |----|
口口口口 |----|
口口口口 |----|
56
口口①口 |----|
口②口③ |①---|
口口口④ |②---③-|
口口口口 |----④-|
57
口④④口 |----|
②③口口 |①---|
口口①口 |②---③-|
口口口口 |----④-|
58
口口口口 |----|
口口口口 |----|
口口口口 |----|
口口口口 |----|
59
口口口口 |----|
口口口口 |----|
口口口口 |----|
口口口口 |----|
60
口口口口 |----|
口口口④ |①---|
口②口③ |②---③-|
口口①口 |----④-|
61
口口口口 |----|
②③①口 |①---|
口口口口 |②---|
口口口口 |③---|
62
口口口口 |①---|
口口口口 |----②-|
口①①口 |----|
口口②口 |----|
63
口①口口 |----|
口口口口 |----|
口口口口 |----|
口口口口 |①---|
64
口口①口 |①---|
口②口口 |----|
口口口口 |②---|
口口口口 |----|
65
口口口口 |①---|
口口口口 |----|
口口①口 |②---|
口②③口 |③---|
66
③③③③ |①---|
①①①① |②---|
②②②② |③---|
④④④④ |④---|
67
口口口口 |----|
口口口口 |----|
口口口口 |----|
口口口口 |----|
68
口口口口 |----|
口口口口 |①---|
④口口口 |②---③-|
③②口① |----④-|
69
口口口口 |----|
口口口③ |①---|
口口①② |②---|
口口口口 |③---|
70
口①口① |①---|
②口②口 |②---|
口③口③ |③---|
④口④口 |④---|
71
口口口口 |----|
口口口口 |----|
口口口口 |----|
口口口口 |----|
72
口口口口 |----|
口口口口 |①---|
①②口口 |②---③-|
口口③④ |----④-|
73
口口口口 |----|
口口口口 |①---|
口③②① |②---|
口口口口 |③---|
74
口口口口 |①---|
②②①① |----|
口口口口 |②---|
口口口口 |----|
75
口口口口 |①---|
口口口口 |----|
口①①口 |②---|
口②③口 |③---|
76
口口口口 |----|
口口口口 |①---|
④口口口 |②---③-|
③②口① |----④-|
77
口口口口 |----|
口口口③ |①---|
口口①② |②---|
口口口口 |③---|
78
口①口① |①---|
②口②口 |②---|
口③口③ |③---|
④口④口 |④---|
79
口口口口 |----|
口口口口 |----|
②口口口 |①---|
口口口① |②---|
80
口②②口 |①---|
①口口① |----|
口口口口 |②---|
口口口口 |----|
81
口口口口 |①---|
②②②② |----|
①①①① |②---|
口口口口 |----|
82
①①①① |①---|
口口口口 |----|
口口口口 |----|
口口口口 |----|
83
②①口口 |----|
③口口口 |----①-|
口口口口 |②---③-|
④口口口 |----④-|
84
口口口口 |①---|
口③③口 |②---|
④②②④ |③---|
口①①口 |----④-|
85
④⑤③② |----①-|
①口口① |----②-|
口口口口 |③---④-|
口口口口 |⑤---|
86
口口口口 |①---|
口③③口 |②---|
④②②④ |③---|
口①①口 |----④-|
87
④⑤③② |----①-|
①口口① |----②-|
口口口口 |③---④-|
口口口口 |⑤---|
88
口口口口 |①---|
口③③口 |②---|
④②②④ |③---|
口①①口 |----④-|
89
④⑤③② |----①-|
①口口① |----②-|
口口口口 |③---④-|
口口口口 |⑤---|
90
③③③③ |①---|
②②②② |--②-|
口①①口 |----|
口①①口 |③---|
91
口口口口 |----|
口口口口 |----|
口口口口 |----|
口口口口 |----|
92
口口口口 |----|
口口口口 |----|
口口口口 |----|
口口口口 |----|
93
口口口口 |----|
口口口口 |----|
口口口口 |----|
口口口口 |----|
94
①②③口 |----|
口口口口 |----|
口口口口 |----|
口口口口 |①②③-|


不确定度: 0

最終更新:2012年11月16日 18:37