歩いて帰ろう
斉藤和義

EXTREME

Level: 7
BPM: 191
Notes: 502

1
口口口口 |----|
口口口口 |----|
口口口口 |----|
口口口口 |----|
2
口①①口 |①---|
口②②口 |②---|
口③③口 |③---|
④口口④ |----④-|
3
④口口⑤ |----①-|
⑤口口④ |----②-|
①②③① |③---④-|
口③②口 |⑤---|
4
口①①口 |①---|
口②②口 |②---|
口③③口 |③---|
④口口④ |----④-|
5
④口口⑤ |----①-|
⑤口口④ |----②-|
①②③① |③---④-|
口③②口 |⑤---|
6
口①①口 |①---|
口②②口 |②---|
口③③口 |③---|
④口口④ |----④-|
7
④口口⑤ |----①-|
⑤口口④ |----②-|
①②③① |③---④-|
口③②口 |⑤---|
8
口①①口 |①---|
口②②口 |②---|
口③③口 |③---|
④口口④ |----④-|
9
④口口⑤ |----①-|
⑤口口④ |----②-|
①②③① |③---④-|
口③②口 |⑤---|
10
口①①口 |①---|
口②②口 |②---|
口③③口 |③---|
④口口④ |----④-|
11
④口口⑤ |----①-|
⑤口口④ |----②-|
①②③① |③---④-|
口③②口 |⑤---|
12
口①①口 |①---|
口②②口 |②---|
口③③口 |③---|
④口口④ |----④-|
13
④口口⑤ |----①-|
⑤口口④ |----②-|
①②③① |③---④-|
口③②口 |⑤---|
14
口口口口 |----|
口口口口 |①---|
口口口④ |②---③-|
①口②③ |----④-|
15
口口口口 |----|
③口口口 |①---|
口②①口 |②---|
口口口口 |③---|
16
④口口④ |①---|
口③③口 |②---|
②口口② |③---|
口①①口 |④---|
17
口口口口 |----|
口口口口 |----|
口口口口 |----|
口口口口 |----|
18
口口口口 |----|
口口口口 |①---|
口口口口 |②---③-|
①②③④ |----④-|
19
口口口口 |----|
口口口口 |①---|
口③②① |②---|
口口口口 |③---|
20
①②①② |①---|
口①②口 |----|
口口口口 |②---|
口口口口 |----|
21
口口口口 |①---|
口口口口 |----|
①口口① |②---|
口②③口 |③---|
22
口口口口 |----|
口口口口 |①---|
口口口④ |②---③-|
①②口③ |----④-|
23
口口口口 |----|
③口口口 |①---|
口②①口 |②---|
口口口口 |③---|
24
④口口④ |①---|
口③③口 |②---|
②口口② |③---|
口①①口 |④---|
25
口口口口 |----|
口口口口 |----|
口口口口 |①---|
口①②口 |②---|
26
口口口口 |①---|
②口口① |----|
②口口① |②---|
口口口口 |----|
27
口口①口 |①---|
②①口② |----|
②口①② |②---|
口口①口 |----|
28
口口口① |①---|
口口①口 |----|
口①口口 |----|
①口口口 |----|
29
口口口口 |----|
①口口② |----①-|
口口口③ |②---③-|
口口口④ |----④-|
30
口①①口 |①---|
口②②口 |②---|
口③③口 |③---|
④口口④ |----④-|
31
④口口⑤ |----①-|
⑤口口④ |----②-|
①②③① |③---④-|
口③②口 |⑤---|
32
口①①口 |①---|
口②②口 |②---|
口③③口 |③---|
④口口④ |----④-|
33
④口口⑤ |----①-|
⑤口口④ |----②-|
①②③① |③---④-|
口③②口 |⑤---|
34
口口口口 |----|
口口口口 |①---|
口口口④ |②---③-|
①口②③ |----④-|
35
口口口口 |----|
③口口口 |①---|
口②①口 |②---|
口口口口 |③---|
36
④口口④ |①---|
口③③口 |②---|
②口口② |③---|
口①①口 |④---|
37
口口口口 |----|
口口口口 |①---|
①②③口 |②---|
口口口口 |③---|
38
口口口口 |①---|
口口口口 |②---|
口口口① |③---④-|
②③④⑤ |----⑤-|
39
口口口口 |----|
口口口口 |①---|
口③②① |②---|
口口口口 |③---|
40
①②①② |①---|
口①②口 |----|
口口口口 |②---|
口口口口 |----|
41
口口口口 |①---|
口口口口 |----|
①口口① |②---|
口②③口 |③---|
42
口口口口 |----|
口口口口 |①---|
口口口④ |②---③-|
①②口③ |----④-|
43
口口口口 |----|
③口口口 |①---|
口②①口 |②---|
口口口口 |③---|
44
④口口④ |①---|
口③③口 |②---|
②口口② |③---|
口①①口 |④---|
45
口口口口 |----|
口口口口 |----|
口口口口 |①---|
口①②口 |②---|
46
口口口口 |①---|
②口口① |----|
②口口① |②---|
口口口口 |----|
47
口②口② |①---|
②口①② |----|
口口①① |②---|
口口①口 |----|
48
①口①口 |①---|
口①口口 |----|
口①口口 |----|
口口口口 |----|
49
口口口口 |----|
①口口② |----①-|
口口口口 |----②-|
口口口③ |----③-|
50
口①①口 |①---|
口②②口 |②---|
口③③口 |③---|
口口口④ |----④-|
51
⑤⑧④⑨ |----①-|
⑦②⑥③ |②-③-④-|
①⑩口口 |⑤-⑥-⑦-|
口口口口 |⑧-⑨-⑩-|
52
口口④口 |----|
口③口口 |①---|
口口②口 |②---③-|
口①口口 |----④-|
53
口①口口 |----|
②口②口 |①---|
口口③口 |②---|
口口口口 |③---|
54
口口口口 |①---|
口口口口 |----②-|
口口口② |----|
口①口① |----|
55
口口口口 |①---|
①口③口 |②---|
口②口④ |③---|
口口口口 |④---|
56
口②口口 |①---|
口口③① |②---|
口④口口 |③---④-|
口口⑤口 |----⑤-|
57
④口④口 |----|
口③口口 |①---|
口口②口 |②---③-|
口①口口 |----④-|
58
口口口口 |----|
口口口口 |----|
口口口口 |----|
口口口口 |----|
59
口口口口 |①---|
①口口口 |----|
②口口口 |②---|
口口口口 |----|
60
口④口口 |----|
口口③口 |①---|
口②口口 |②---③-|
口口①口 |----④-|
61
口口①口 |----|
口②口口 |①---|
口口③口 |②---|
口口口口 |③---|
62
口口口口 |①---|
口口口口 |----②-|
口口口② |----|
口①口① |----|
63
口①口口 |----|
口口口口 |----|
口口口口 |----|
口口口口 |①---|
64
口口①① |①---|
②口口口 |----|
口口口口 |②---|
口口口口 |----|
65
口口口口 |①---|
口口口① |----|
②口③口 |②---|
口口口口 |③---|
66
①③①③ |①---|
③①③① |②---|
④②④② |③---|
②④②④ |④---|
67
口口口口 |----|
口口口口 |----|
口口口口 |----|
口口口口 |----|
68
口口口口 |----|
口口口口 |①---|
口口口④ |②---③-|
①②口③ |----④-|
69
口口口口 |----|
③口口口 |①---|
口②①口 |②---|
口口口口 |③---|
70
④口口④ |①---|
口③③口 |②---|
②口口② |③---|
口①①口 |④---|
71
口口口口 |----|
口口口口 |----|
口口口口 |----|
口口口口 |----|
72
口口口口 |----|
口口口口 |①---|
口口口口 |②---③-|
①②③④ |----④-|
73
口口口口 |----|
口口口口 |①---|
口③②① |②---|
口口口口 |③---|
74
①②①② |①---|
口①②口 |----|
口口口口 |②---|
口口口口 |----|
75
口口口口 |①---|
口口口口 |----|
①口口① |②---|
口②③口 |③---|
76
口口口口 |----|
口口口口 |①---|
口口口④ |②---③-|
①②口③ |----④-|
77
口口口口 |----|
③口口口 |①---|
口②①口 |②---|
口口口口 |③---|
78
④口口④ |①---|
口③③口 |②---|
②口口② |③---|
口①①口 |④---|
79
口口口口 |----|
口口口口 |----|
口口口口 |①---|
口①②口 |②---|
80
口口口口 |①---|
口口②① |----|
口口②① |②---|
口口口口 |----|
81
口①口① |①---|
①口口① |----|
②口口② |②---|
②口口② |----|
82
①①①口 |①---|
口①口口 |----|
口口口口 |----|
口口口口 |----|
83
①口口口 |----|
口口口② |----①-|
口口口③ |②---③-|
口口④口 |----④-|
84
口①①口 |①---|
口②②口 |②---|
口③③口 |③---|
④口口④ |----④-|
85
④口口⑤ |----①-|
⑤口口④ |----②-|
①②③① |③---④-|
口③②口 |⑤---|
86
口①①口 |①---|
口②②口 |②---|
口③③口 |③---|
④口口④ |----④-|
87
④口口⑤ |----①-|
⑤口口④ |----②-|
①②③① |③---④-|
口③②口 |⑤---|
88
口①①口 |①---|
口②②口 |②---|
口③③口 |③---|
④口口④ |----④-|
89
④口口⑤ |----①-|
⑤口口④ |----②-|
①②③① |③---④-|
口③②口 |⑤---|
90
③②②③ |①---|
③①①③ |--②-|
②③③② |----|
①口口① |③---|
91
口口口口 |----|
口口口口 |----|
口口口口 |----|
口口口口 |----|
92
口口口口 |----|
口口口口 |----|
口口口口 |----|
口口口口 |----|
93
口口口口 |----|
口口口口 |----|
口口口口 |----|
口口口口 |----|
94
①②③口 |----|
口口口口 |----|
口口口口 |----|
口口口口 |①②③-|


不确定度: 0

最終更新:2012年11月16日 18:36