a fact of life
FACT

BASIC

Level: 3
BPM: 190
Notes: 160

1
口口口口 |----|
口口口口 |----|
口口口口 |----|
口口口口 |----|
2
口口口口 |①---|
口口口口 |----|
口口口口 |②---|
②口口① |----|
3
口口口口 |①---|
口口口口 |----|
口口口口 |②---|
口②③① |③---|
4
口口口口 |①---|
口口口口 |----|
②口口① |②---|
口口口口 |----|
5
口口口口 |①---|
口口口口 |----|
口②③① |②---|
口口口口 |③---|
6
口口口口 |①---|
②口口① |----|
口口口口 |②---|
口口口口 |----|
7
口口口口 |①---|
口②③① |----|
口口口口 |②---|
口口口口 |③---|
8
②口口① |①---|
口口口口 |----|
口口口口 |②---|
口口口口 |----|
9
口②③① |①---|
口口口口 |----|
口口口口 |②---|
口口口口 |③---|
10
口口口口 |①---|
①口口② |----|
口口口口 |②---|
口口口口 |----|
11
口口口口 |①---|
口①口口 |②---|
口口②口 |③---|
口③口口 |----|
12
口口口口 |①---|
口口口口 |----|
口口口口 |②---|
口②①口 |----|
13
口④③口 |①---|
口②口口 |②---|
口口①口 |③---|
口口口口 |④---|
14
口口口① |①---|
口口②口 |----|
口口口口 |②---|
口口口口 |----|
15
口①口口 |①---|
②口口口 |----|
口口口口 |②---|
口口口口 |----|
16
①口口口 |①---|
口②口口 |----|
口口口口 |②---|
口口口口 |----|
17
口口①口 |①---|
口口口② |----|
口口口口 |②---|
口口口口 |----|
18
口①②口 |①---|
口口口口 |----|
口口口口 |②---|
口口口口 |----|
19
口口口口 |①---|
口口①口 |②---|
口②口口 |③---|
口口③口 |----|
20
口口口口 |①---|
口口口口 |----|
口口口口 |②---|
口①②口 |----|
21
口口③口 |①---|
口②口口 |②---|
口口①口 |③---|
口口口口 |----|
22
口口口① |①---|
口口②口 |----|
口口口口 |②---|
口口口口 |----|
23
口①口口 |①---|
②口口口 |----|
口口口口 |②---|
口口口口 |----|
24
①口口口 |①---|
口②口口 |----|
口口口口 |②---|
口口口口 |----|
25
口口①口 |①---|
口口口② |----|
口口口口 |②---|
口口口口 |----|
26
口口②① |①---|
口口口口 |----|
口口口口 |②---|
口口口口 |----|
27
口口口口 |①---|
口口①口 |②---|
口口②口 |③---|
口口③口 |----|
28
口口口口 |①---|
口口口口 |----|
口口口口 |②---|
①②口口 |----|
29
口③口口 |①---|
口②口口 |②---|
口①口口 |③---|
口口口口 |----|
30
口口②① |①---|
口口口口 |----|
口口口口 |②---|
口口口口 |----|
31
口口口口 |①---|
口口①口 |②---|
口口②口 |③---|
口口③口 |----|
32
口口口口 |①---|
口①①口 |----|
口②②口 |②---|
口口口口 |----|
33
口口口口 |----|
口口口③ |①---|
口口口② |②---|
口口口① |③---|
34
口口口口 |----|
口口口口 |----|
口口口口 |----|
口口口口 |----|
35
口口口口 |----|
③口口口 |①---|
②口口口 |②---|
①口口口 |③---|
36
口口口口 |----|
口口口口 |----|
口口口口 |----|
口口口口 |----|
37
口口口口 |----|
口口口口 |----|
口口口口 |----|
口口口口 |----|
38
口①②口 |①---|
口口口口 |----|
口口口口 |②---|
口口口口 |----|
39
口口口口 |①---|
口①口口 |②---|
口口②口 |③---|
口③口口 |----|
40
口口口口 |①---|
口口口口 |----|
口口口口 |②---|
口②①口 |----|
41
口④③口 |①---|
口②口口 |②---|
口口①口 |③---|
口口口口 |④---|
42
口口口① |①---|
口口②口 |----|
口口口口 |②---|
口口口口 |----|
43
口①口口 |①---|
②口口口 |----|
口口口口 |②---|
口口口口 |----|
44
①口口口 |①---|
口②口口 |----|
口口口口 |②---|
口口口口 |----|
45
口口①口 |①---|
口口口② |----|
口口口口 |②---|
口口口口 |----|
46
口①②口 |①---|
口口口口 |----|
口口口口 |②---|
口口口口 |----|
47
口口口口 |①---|
口口①口 |②---|
口②口口 |③---|
口口③口 |----|
48
口口口口 |①---|
口口口口 |----|
口口口口 |②---|
口①②口 |----|
49
口口③口 |①---|
口②口口 |②---|
口口①口 |③---|
口口口口 |----|
50
口口口① |①---|
口口②口 |----|
口口口口 |②---|
口口口口 |----|
51
口①口口 |①---|
②口口口 |----|
口口口口 |②---|
口口口口 |----|
52
①口口口 |①---|
口②口口 |----|
口口口口 |②---|
口口口口 |----|
53
口口①口 |①---|
口口口② |----|
口口口口 |②---|
口口口口 |----|
54
口口②① |①---|
口口口口 |----|
口口口口 |②---|
口口口口 |----|
55
口口口口 |①---|
口口①口 |②---|
口口②口 |③---|
口口③口 |----|
56
口口口口 |①---|
口口口口 |----|
口口口口 |②---|
①②口口 |----|
57
口③口口 |①---|
口②口口 |②---|
口①口口 |③---|
口口口口 |----|
58
口口②① |①---|
口口口口 |----|
口口口口 |②---|
口口口口 |----|
59
口口口口 |①---|
口口①口 |②---|
口口②口 |③---|
口口③口 |----|
60
口口口口 |①---|
口①①口 |----|
口②②口 |②---|
口口口口 |----|
61
口口口口 |----|
口口口③ |①---|
口口口② |②---|
口口口① |③---|
62
口口②① |①---|
口口口口 |----|
口口口口 |②---|
口口口口 |----|
63
口口口口 |①---|
口口①口 |②---|
口口②口 |③---|
口口③口 |----|
64
口口口口 |①---|
口口口口 |----|
口口口口 |②---|
①②口口 |----|
65
口③口口 |①---|
口②口口 |②---|
口①口口 |③---|
口口口口 |----|
66
口口②① |①---|
口口口口 |----|
口口口口 |②---|
口口口口 |----|
67
口口口口 |①---|
口口①口 |②---|
口口②口 |③---|
口口③口 |----|
68
口口口口 |----|
口口口口 |----|
口①①口 |----|
口口口口 |①---|
69
口口口口 |----|
口①①口 |----|
口口口口 |----|
口口口口 |①---|


不确定度: 0

最終更新:2012年11月16日 18:31