a fact of life
FACT

ADVANCED

Level: 6
BPM: 190
Notes: 362

1
口口口口 |----|
口口口口 |----|
口口口口 |----|
口口口口 |----|
2
①口口口 |①---|
口②口口 |②---|
③口口口 |③---|
口④口口 |④---|
3
口④口口 |①---|
③口口口 |②---|
口②口口 |③---|
①口口口 |④---|
4
①口口口 |①---|
口②口口 |②---|
③口口口 |③---|
口④口口 |④---|
5
口④口口 |①---|
③口口口 |②---|
口②口口 |③---|
①口口口 |④---|
6
口口①口 |①---|
口口口② |②---|
口口③口 |③---|
口口口④ |④---|
7
口口口④ |①---|
口口③口 |②---|
口口口② |③---|
口口①口 |④---|
8
口口①口 |①---|
口口口② |②---|
口口③口 |③---|
口口口④ |④---|
9
口口口④ |①---|
口口③口 |②---|
口口口② |③---|
口口①口 |④---|
10
①口②口 |①-②-|
③口④口 |③-④-|
⑤口⑥口 |⑤-⑥-|
⑦口⑧口 |⑦-⑧-|
11
⑦⑤⑥⑤ |①-②-|
口口口口 |③-④-|
口③口④ |⑤---|
口①口② |⑥-⑦-|
12
口口口口 |①-②-|
②口①口 |③-④-|
④口③口 |⑤-⑥-|
⑥⑧⑤⑦ |⑦-⑧-|
13
口口⑤口 |①-②-|
⑥④口③ |③-④-|
口②⑦① |⑤-⑥-|
口口口口 |⑦---|
14
口口口口 |①---|
口口口③ |--②-|
④④口② |--③-|
口①口口 |--④-|
15
②②口口 |--①-|
①①口口 |--②-|
口口口口 |----|
口口口③ |--③-|
16
③口口口 |①-②-|
口④口② |--③-|
⑤口①口 |--④-|
口口口口 |--⑤-|
17
口口口口 |--①-|
口口口口 |----|
口口口口 |----|
①①口口 |----|
18
③口口③ |①-②-|
口②④口 |--③-|
口⑤①口 |--④-|
口口⑥口 |⑤-⑥-|
19
口口④口 |--①-|
口③口口 |②-③-|
口口②口 |④---|
口①口口 |----|
20
②口口① |①-②-|
④口口③ |③-④-|
⑥口口⑤ |⑤-⑥-|
⑧口口⑦ |⑦-⑧-|
21
口口口口 |--①-|
③口口③ |②---|
口②口口 |③---|
口口①口 |----|
22
口口口口 |①---|
口口口③ |--②-|
④④口② |--③-|
口口①口 |--④-|
23
②②口口 |--①-|
①①口口 |--②-|
口口口口 |----|
口③③口 |③---|
24
口口口口 |①-②-|
口③②口 |--③-|
口①口口 |----|
口口口口 |----|
25
口口口口 |①---|
②口口② |----|
①口口① |②---|
口口口口 |----|
26
口口①口 |①-②-|
口②③口 |③---|
口口口口 |④---|
⑤④④⑤ |⑤---|
27
口口口口 |①---|
②口口② |②---|
①③③① |③---|
口③③口 |----|
28
口口口口 |--①-|
口②①口 |②---|
口口口口 |③---|
④③③④ |④---|
29
口③③口 |①---|
②③③② |②---|
①口口① |③---|
口口口口 |----|
30
口④④口 |--①-|
口③③口 |②---|
口②口口 |③---|
口口①口 |④---|
31
口口口口 |①---|
①口口① |②---|
②口口② |③---|
③口口③ |----|
32
口①①口 |①---|
口②②口 |----|
口口口口 |②---|
口口口口 |----|
33
口④口口 |----|
口口③① |①---|
口②口口 |②-③-|
口口口口 |④---|
34
口口口口 |----|
口口口口 |----|
口口口口 |----|
口口口口 |----|
35
口口④口 |----|
①③口口 |①---|
口口②口 |②-③-|
口口口口 |④---|
36
口口口口 |----|
口口口口 |----|
口口口口 |----|
口口口口 |----|
37
口口口口 |①---|
口口口口 |②---|
口④③口 |③---|
口②①口 |④---|
38
①口②口 |①-②-|
③口④口 |③-④-|
⑤口⑥口 |⑤-⑥-|
⑦口⑧口 |⑦-⑧-|
39
⑦⑤⑥⑤ |①-②-|
口口口口 |③-④-|
口③口④ |⑤---|
口①口② |⑥-⑦-|
40
口口口口 |①-②-|
②口①口 |③-④-|
④口③口 |⑤-⑥-|
⑥⑧⑤⑦ |⑦-⑧-|
41
口口⑤口 |①-②-|
⑥④口③ |③-④-|
口②⑦① |⑤-⑥-|
口口口口 |⑦---|
42
口口口口 |①---|
口口口③ |--②-|
④④口② |--③-|
口口①口 |--④-|
43
②②口口 |--①-|
①①口口 |--②-|
口口口口 |----|
口口口③ |--③-|
44
口③口口 |①-②-|
④口口② |--③-|
口⑤①口 |--④-|
口口口口 |--⑤-|
45
口口口口 |--①-|
口口口口 |----|
口口口口 |----|
①①口口 |----|
46
③口口③ |①-②-|
口②④口 |--③-|
口⑤①口 |--④-|
口口⑥口 |⑤-⑥-|
47
口口④口 |--①-|
口③口口 |②-③-|
口口②口 |④---|
口①口口 |----|
48
②口口① |①-②-|
④口口③ |③-④-|
⑥口口⑤ |⑤-⑥-|
⑧口口⑦ |⑦-⑧-|
49
口口口口 |--①-|
③口口③ |②---|
口②口口 |③---|
口口①口 |----|
50
口口口口 |①---|
口口口③ |--②-|
④④口② |--③-|
口口①① |--④-|
51
②②口口 |--①-|
①①口口 |--②-|
口口口口 |----|
口③③口 |③---|
52
口口口口 |①-②-|
口③②口 |--③-|
口①口口 |----|
口口口口 |----|
53
口口口口 |①---|
②口口② |----|
①口口① |②---|
口口口口 |----|
54
口口①口 |①-②-|
口②③口 |③---|
口口口口 |④---|
⑤④④⑤ |⑤---|
55
口口口口 |①---|
②口口② |②---|
①③③① |③---|
口③③口 |----|
56
口口口口 |--①-|
口②①口 |②---|
口口口口 |③---|
④③③④ |④---|
57
口③③口 |①---|
②③③② |②---|
①口口① |③---|
口口口口 |----|
58
口④④口 |--①-|
口③③口 |②---|
口②口口 |③---|
口口①口 |④---|
59
口口口口 |①---|
①口口① |②---|
②口口② |③---|
③口口③ |----|
60
口①①口 |①---|
口口口口 |----|
②口口② |②---|
口口口口 |----|
61
口口口口 |----|
口口口口 |①---|
口④口口 |②-③-|
口②③① |④---|
62
口口①口 |①-②-|
口②③口 |③---|
口口口口 |④---|
⑤④④⑤ |⑤---|
63
口口口口 |①---|
②口口② |②---|
①③③① |③---|
口③③口 |----|
64
口口口口 |--①-|
口②①口 |②---|
口口口口 |③---|
④③③④ |④---|
65
口③③口 |①---|
②③③② |②---|
①口口① |③---|
口口口口 |----|
66
口④④口 |--①-|
口③③口 |②---|
口②口口 |③---|
口口①口 |④---|
67
口口口口 |①---|
①口口① |②---|
②口口② |③---|
③口口③ |----|
68
口口口口 |----|
口口口口 |----|
口口口口 |----|
口①①口 |①---|
69
口口口口 |----|
①口口① |----|
口口口口 |----|
口口口口 |①---|


不确定度: 0

最終更新:2012年11月16日 18:31