a fact of life
FACT

EXTREME

Level: 7
BPM: 190
Notes: 494

1
口口口口 |----|
口口口口 |----|
口口口口 |----|
口口口口 |----|
2
口②口① |①-②-|
④口③口 |③-④-|
口⑥口⑤ |⑤-⑥-|
⑧口⑦口 |⑦-⑧-|
3
②口①口 |①-②-|
口④口③ |③-④-|
⑥口⑤口 |⑤-⑥-|
口⑧口⑦ |⑦-⑧-|
4
口②口① |①-②-|
④口③口 |③-④-|
口⑥口⑤ |⑤-⑥-|
⑧口⑦口 |⑦-⑧-|
5
②口①口 |①-②-|
口④口③ |③-④-|
⑥⑦⑦⑤ |⑤-⑥-|
口口口口 |⑦---|
6
口②口① |①-②-|
④口③口 |③-④-|
口⑥口⑤ |⑤-⑥-|
⑧口⑦口 |⑦-⑧-|
7
②口①口 |①-②-|
口④口③ |③-④-|
⑥口⑤口 |⑤-⑥-|
口⑧口⑦ |⑦-⑧-|
8
口②口① |①-②-|
④口③口 |③-④-|
口⑥口⑤ |⑤-⑥-|
⑧口⑦口 |⑦-⑧-|
9
②口①口 |①-②-|
口④口③ |③-④-|
⑥⑦⑦⑤ |⑤-⑥-|
口口口口 |⑦---|
10
⑥口①口 |①-②-|
口④口⑤ |③-④-|
口⑧口口 |⑤-⑥-|
②口③⑦ |⑦-⑧-|
11
口口①口 |①-②-|
口口口口 |③-④-|
④口口③
口②口口

⑥⑤⑦口
口⑤⑤口
口口⑤口 |⑤---|
口口口口 |⑥-⑦-|
12
口⑤口④ |①-②-|
③口⑧⑥ |③-④-|
口口口② |⑤-⑥-|
①⑦口口 |⑦-⑧-|
13
口⑤口口 |①-②-|
口③口⑥ |③-④-|
①⑦⑦② |⑤-⑥-|
⑦口④⑦ |⑦---|
14
①④④① |①---|
口口口口 |--②-|
③口口③ |--③-|
口②②口 |--④-|
15
口口口口 |--①-|
口①①口 |--②-|
③②②③ |----|
口口口口 |--③-|
16
②③③② |①-②-|
①④④① |--③-|
口⑤⑤口 |--④-|
口口口口 |--⑤-|
17
口口口口 |--①-|
口口口口 |----|
口口口口 |----|
①①①① |----|
18
口②②口 |①-②-|
口口⑥口 |--③-|
③⑤口③ |--④-|
①口④① |⑤-⑥-|
19
④口口④ |--①-|
口③口口 |②-③-|
口口②口 |④---|
口①口口 |----|
20
口口口口 |①-②-|
口口口口 |③-④-|
⑦⑤⑥⑧ |⑤-⑥-|
③①②④ |⑦-⑧-|
21
口③③口 |--①-|
①③③② |②---|
口口口口 |③---|
口口口口 |----|
22
①④④① |①---|
口口口口 |--②-|
③口口③ |--③-|
口②②口 |--④-|
23
口口口口 |--①-|
口①①口 |--②-|
口②②口 |----|
口③③口 |③---|
24
口③②口 |①-②-|
口①口口 |--③-|
口口口口 |----|
口口口口 |----|
25
口②②口 |①---|
②口口② |----|
①口口① |②---|
口①①口 |----|
26
口口口口 |①-②-|
口①①口 |③---|
③①①⑤ |④---|
②口④④ |⑤---|
27
口③③② |①---|
口口①① |②---|
口③③口 |③---|
口口口口 |----|
28
口口口口 |--①-|
口口口口 |②---|
④口口② |③---|
③③口① |④---|
29
②③③口 |①---|
①①口口 |②---|
口③③口 |③---|
口口口口 |----|
30
口口口③ |--①-|
口②②口 |②---|
口④口口 |③---|
口①①口 |④---|
31
口①口口 |①---|
口口口口 |②---|
口口②口 |③---|
③口口口 |----|
32
①①①① |①---|
②②②② |----|
①口口① |②---|
②口口② |----|
33
①口口① |----|
口口②口 |①---|
口③口口 |②-③-|
口口④口 |④---|
34
口①②口 |①-②-|
③口口④ |③-④-|
口⑤⑥口 |⑤-⑥-|
⑦口口⑧ |⑦-⑧-|
35
③口口③ |①-②-|
口④口口 |③---|
①口⑤② |④-⑤-|
口⑥口口 |⑥---|
36
口②①口 |①-②-|
④口口③ |③-④-|
口⑥⑤口 |⑤-⑥-|
⑧口口⑦ |⑦-⑧-|
37
⑥④口⑤ |①-②-|
口口口口 |③-④-|
②⑧⑦③ |⑤-⑥-|
口口①口 |⑦-⑧-|
38
⑥口①口 |①-②-|
口④口⑤ |③-④-|
口⑧口口 |⑤-⑥-|
②口③⑦ |⑦-⑧-|
39
口口①口 |①-②-|
口口口口 |③-④-|
④口口③
口②口口

⑥⑤⑦口
口⑤⑤口
口口⑤口 |⑤---|
口口口口 |⑥-⑦-|
40
口⑤口④ |①-②-|
③口⑧⑥ |③-④-|
口口口② |⑤-⑥-|
①⑦口口 |⑦-⑧-|
41
口⑤口口 |①-②-|
口③口⑥ |③-④-|
①⑦⑦② |⑤-⑥-|
⑦口④⑦ |⑦---|
42
①④④① |①---|
口口口口 |--②-|
③口口③ |--③-|
口②②口 |--④-|
43
口口口口 |--①-|
口①①口 |--②-|
③②②③ |----|
口口口口 |--③-|
44
②③③② |①-②-|
①④④① |--③-|
口⑤⑤口 |--④-|
口口口口 |--⑤-|
45
口口口口 |--①-|
口口口口 |----|
口口口口 |----|
①①①① |----|
46
口②②口 |①-②-|
口口⑥口 |--③-|
③⑤口③ |--④-|
①口④① |⑤-⑥-|
47
④口口④ |--①-|
口③口口 |②-③-|
口口②口 |④---|
口①口口 |----|
48
口口口口 |①-②-|
口口口口 |③-④-|
⑦⑤⑥⑧ |⑤-⑥-|
③①②④ |⑦-⑧-|
49
口③③口 |--①-|
①③③② |②---|
口口口口 |③---|
口口口口 |----|
50
①④④① |①---|
口口口口 |--②-|
③口口③ |--③-|
口②②口 |--④-|
51
口口口口 |--①-|
口①①口 |--②-|
口②②口 |----|
口③③口 |③---|
52
口③②口 |①-②-|
口①口口 |--③-|
口口口口 |----|
口口口口 |----|
53
口②②口 |①---|
②口口② |----|
①口口① |②---|
口①①口 |----|
54
口口口口 |①-②-|
口①①口 |③---|
③①①⑤ |④---|
②口④④ |⑤---|
55
口③③② |①---|
口口①① |②---|
口③③口 |③---|
口口口口 |----|
56
口口口口 |--①-|
口口口口 |②---|
④口口② |③---|
③③口① |④---|
57
②③③口 |①---|
①①口口 |②---|
口③③口 |③---|
口口口口 |----|
58
口口口③ |--①-|
口②②口 |②---|
口④口口 |③---|
口①①口 |④---|
59
口①口口 |①---|
口口口口 |②---|
口口②口 |③---|
③口口口 |----|
60
①①①① |①---|
②②②② |----|
①口口① |②---|
②口口② |----|
61
口口口④ |----|
③口口口 |①---|
口口口② |②-③-|
口①①口 |④---|
62
口口口口 |①-②-|
口①①口 |③---|
③①①⑤ |④---|
②口④④ |⑤---|
63
口③③② |①---|
口口①① |②---|
口③③口 |③---|
口口口口 |----|
64
口口口口 |--①-|
口口口口 |②---|
④口口② |③---|
③③口① |④---|
65
②③③口 |①---|
①①口口 |②---|
口③③口 |③---|
口口口口 |----|
66
口口口③ |--①-|
口②②口 |②---|
口④口口 |③---|
口①①口 |④---|
67
口①口口 |①---|
口口口口 |②---|
口口②口 |③---|
③口口口 |----|
68
⑥⑥口口 |①-②-|
⑥⑥口口 |③---|
口④⑤⑥ |④-⑤-|
口①②③ |⑥---|
69
⑥⑥口口 |①-②-|
⑥⑥口口 |③---|
口④⑤⑥ |④-⑤-|
口①②③ |⑥---|


不确定度: 0

最終更新:2012年11月16日 18:31