だから一歩前へ踏み出して
Hi-Fi CAMP

ADVANCED

Level: 5
BPM: 130
Notes: 405

1
口口口口 |----|
口口③口 |----|
口口②口 |--①-|
口口①口 |②-③-|
2
④②口口 |①---|
③⑤口⑥ |②-③-|
口①⑥口 |--④-|
口口口口 |⑤-⑥-|
3
④口口口 |--①-|
⑤口口口 |②-③-|
口口口口 |----|
口③②① |④-⑤-|
4
口口口口 |①---|
口口口口 |②-③-|
①口③口
口口②口

口口口口
④口口口
④口口口 |--④-|
口口口⑤ |--⑤-|
5
口口③③ |--①-|
口口②② |--②-|
口⑤①口 |③---|
口④口口 |④-⑤-|
6
口口口口 |--①-|
④③②① |②-③-|
口⑤口⑦ |④-⑤-|
口⑥口口 |⑥-⑦-|
7
③③口口 |--①-|
口口②② |--②-|
①口口口 |--③-|
口口④口 |--④-|
8
口④④口 |①--②|
②口⑤② |--③-|
口③③口 |--④-|
口①口口 |--⑤-|
9
口口口口 |①--②|
口①⑥口 |--③-|
②⑤口② |--④-|
③口④③ |⑤-⑥-|
10
①①①① |①---|
口口口口 |②-③-|
口③②口
口口口口

④口口④
④口口④
口口口口 |--④-|
⑤口⑤口 |--⑤-|
11
③口口③ |--①-|
②口②口 |--②-|
①①口口 |--③-|
口口口④ |--④-|
12
口口③口 |①---|
④④口② |②-③-|
⑤⑤①口 |--④-|
⑥⑥口口 |⑤-⑥-|
13
口口口口 |----|
口口⑤口 |--①-|
口④③口 |②-③-|
口②①口 |④-⑤-|
14
③④④③ |①---|
②①口② |②-③-|
⑤口口⑤ |--④-|
口口口口 |--⑤-|
15
口⑤⑥口 |--①-|
④③③口 |②-③-|
口②②口 |--④-|
口①①口 |⑤-⑥-|
16
口口口口 |①---|
口口口① |②-③-|
口口口口 |----|
③口口② |----|
17
口口②口 |--①-|
口①口③ |②-③-|
口口④口 |④---|
口⑤口⑥ |⑤-⑥-|
18
①口口口 |①-②-|
②口口口 |③-④-|
③口口口
④口口口

口口口口
⑥⑥口口
口口⑤⑤ |--⑤-|
口口口口 |--⑥-|
19
口口口① |①-②-|
口口口② |③-④-|
口口口③ |----|
口口口④ |----|
20
⑤⑤口口 |①-②-|
①②③④ |③-④-|
⑥⑥口口 |--⑤-|
口口口口 |--⑥-|
21
口口③③ |①--②|
②②口口 |--③-|
口口①① |----|
口口口口 |----|
22
口口口① |①-②-|
口口口② |③-④-|
口口口③
口口口④

口口口口
口口⑥⑥
⑤⑤口口 |--⑤-|
口口口口 |--⑥-|
23
①口口口 |①-②-|
②口口⑤ |③-④-|
③口口口 |----|
④口口口 |--⑤-|
24
④口口④ |①--②|
②⑤⑤口 |--③-|
⑥③①⑥ |④--⑤|
口口口口 |--⑥-|
25
口口口口 |----|
口口口口 |----|
口口②口 |----|
口口口① |①-②-|
26
口口②口 |①-②-|
口③口① |③-④-|
④口口口
口口口口

口⑦⑥⑤
口口口口
口口口口 |--⑤-|
口口口口 |⑥-⑦-|
27
口口口口 |①--②|
①口口④ |--③-|
②口口⑤ |--④-|
③口口⑥ |⑤-⑥-|
28
口口口口 |----|
②口口① |①-②-|
口④③口 |③-④-|
⑥口口⑤ |⑤-⑥-|
29
口口①口 |----|
口口②口 |----|
口口口口 |----|
口口口口 |①-②-|
30
口口口口 |①-②-|
口②口口 |③-④-|
口③①口
口④口口

口口口口
口口口⑦
口口⑥口 |--⑤-|
口口口⑤ |⑥-⑦-|
31
口②口口 |①--②|
①⑥③口 |--③-|
口⑤口口 |--④-|
口④口口 |⑤-⑥-|
32
口口口口 |----|
②⑤⑤① |①-②-|
口④④口 |--③-|
口③③口 |④-⑤-|
33
口口口口 |----|
①口口① |----|
口口口口 |----|
口口口口 |--①-|
34
口①①口 |①---|
口口口口 |②-③-|
③③口口
②②口口

口口口口
④口口④
口口口口 |--④-|
口⑤⑤口 |--⑤-|
35
口口③口 |--①-|
口②口口 |②-③-|
口口①口 |----|
口口口④ |--④-|
36
口⑦⑦口 |①-②-|
⑥⑤④⑥ |③-④-|
口③②口 |⑤---|
①口口口 |⑥-⑦-|
37
口口口口 |--①-|
口①①口 |----|
口口口口
口口口口

②②口口
口口③口
口口口口 |----|
口口口口 |②-③-|
38
口口口口 |①---|
口口口口 |----|
口①口①
口口口口

口口口口
口④④口
③口口② |--②-|
口口口口 |③-④-|
39
口口口口 |--①-|
②口口① |②-③-|
⑤③③⑤ |--④-|
口④④口 |--⑤-|
40
②口口② |①---|
口①①口 |----|
③口口③ |--②-|
口④④口 |③-④-|
41
口口口口 |----|
口③③口 |----|
口②②口 |--①-|
口①①口 |②-③-|
42
①①①① |①---|
口口口口 |②-③-|
③口口②
口口口口

口口⑥口
口⑤⑥口
口⑤④口 |--④-|
口口④口 |⑤-⑥-|
43
②口口② |--①-|
①口口① |--②-|
口口口口 |----|
④口口③ |③-④-|
44
③口口② |①---|
口①①口 |②-③-|
④①①④ |--④-|
口口⑤口 |--⑤-|
45
⑤口口⑤ |--①-|
④③②④ |--②-|
口①口口 |③---|
口口口口 |④-⑤-|
46
⑥⑦⑤口 |--①-|
⑥⑦⑤口 |②-③-|
②口口① |④-⑤-|
口④③口 |⑥-⑦-|
47
③③口① |--①-|
口口口① |--②-|
口②④口 |--③-|
口②④口 |--④-|
48
口口②口 |①--②|
①口②④ |--③-|
①③口④ |--④-|
口③⑤口 |--⑤-|
49
③口口③ |①--②|
⑥③③⑥ |--③-|
⑤②②⑤ |--④-|
④①口④ |⑤-⑥-|
50
②口口② |①---|
口①①口 |②-③-|
口③③口
口口口口

口口口口
口④④口
口口口口 |--④-|
⑤口⑤口 |--⑤-|
51
③口口③ |--①-|
②口②口 |--②-|
①①口口 |--③-|
口口④④ |--④-|
52
⑤⑥⑥⑤ |①---|
口④④口 |②-③-|
③③②② |--④-|
①①口口 |⑤-⑥-|
53
口口口口 |----|
口口⑤口 |--①-|
口④③口 |②-③-|
口②①口 |④-⑤-|
54
③口口③ |①---|
②①口② |②-③-|
口口口口
口口口口

口口口口
⑤口口⑤
口④④口 |--④-|
口口口口 |--⑤-|
55
口口口口 |--①-|
口口①口 |②-③-|
口②口口
口口③口

口口④口
口⑤口⑤
口⑥口⑥ |--④-|
口口口口 |⑤-⑥-|
56
②口口口 |①---|
③口口口 |②-③-|
口口口口 |----|
口①口① |----|
57
口④口口 |--①-|
③口⑤口 |②-③-|
口⑥②② |④---|
口口①① |⑤-⑥-|


不确定度: 0

最終更新:2013年03月23日 20:33