だから一歩前へ踏み出して
Hi-Fi CAMP

EXTREME

Level: 7
BPM: 130
Notes: 539

1
口口口口 |----|
口口③口 |----|
口口②口 |--①-|
口口①口 |②-③-|
2
②⑤口⑤ |①---|
口⑥⑤⑥ |②-③-|
①口⑥口 |--④-|
口③④口 |⑤-⑥-|
3
①口口口 |--①-|
①口口口 |②-③-|
③口口②
③口口②

口口口口
⑤口口④
口⑤④口 |----|
口口口口 |④-⑤-|
4
③③②② |①---|
口①①口 |②-③-|
口口⑤④ |--④-|
口口⑤④ |--⑤-|
5
②①④⑤ |--①-|
②①④⑤ |--②-|
③口口口 |③---|
③口口口 |④-⑤-|
6
口口口口 |--①-|
口口口口 |②-③-|
口口口③
口口②①

口⑥⑤④
口口口口
口口口口 |④-⑤-|
口⑦⑦口 |⑥-⑦-|
7
口②口口 |--①-|
②②口口 |--②-|
②①①口
②口口口

口口口口
口口③③
口⑦⑥③ |--③-|
口⑤④③ |④⑤⑥⑦|
8
①口口① |①--②|
⑤②口⑤ |--③-|
③口口③ |--④-|
口口④口 |--⑤-|
9
③①①③ |①--②|
口②②口 |--③-|
③口口③
口口口口

口口口口
口口⑥口
口⑤口口 |--④-|
口口④口 |⑤-⑥-|
10
①①①① |①---|
口口口口 |②-③-|
口口③③
②口口②

⑤⑤口口
⑥④⑥④
⑥⑥口口 |④-⑤-|
⑥口⑥口 |--⑥-|
11
口口①① |--①-|
③③④口 |--②-|
口口②② |--③-|
口口口④ |--④-|
12
口①口② |①---|
③口⑥口 |②-③-|
①⑤②口 |--④-|
口③④口 |⑤-⑥-|
13
口①②口 |----|
①⑤口② |--①-|
③⑤口④ |②-③-|
口③④口 |④-⑤-|
14
③⑤⑤③ |①---|
口口①口 |②-③-|
口口①口 |--④-|
②④④② |--⑤-|
15
②⑤⑥② |--①-|
④①①口 |②-③-|
口口口口 |--④-|
③口口③ |⑤-⑥-|
16
口口口口 |①---|
口口口① |②-③-|
口口③口 |----|
口口口② |----|
17
口⑤②⑥ |--①-|
口①口③ |②-③-|
口⑤④⑥ |④---|
口口口口 |⑤-⑥-|
18
①⑤⑤口 |①-②-|
②口口口 |③-④-|
③⑥口口 |--⑤-|
④⑥口口 |--⑥-|
19
口口口② |①-②-|
①口②③ |③-④-|
①口③④
口口④口

⑤口口口
⑥口口口
⑦口口口 |--⑤-|
口口口口 |⑥-⑦-|
20
⑤口④⑤ |①-②-|
口口③口 |③-④-|
口口②口 |--⑤-|
⑥口①⑥ |--⑥-|
21
口口口③ |①--②|
②口③口 |--③-|
口②口①
口口①口

口口口口
口口口口
口口口口 |--④-|
④⑤⑥口 |⑤-⑥-|
22
口⑤⑤① |①-②-|
口口口② |③-④-|
口口⑥③ |--⑤-|
口口⑥④ |--⑥-|
23
②口口口 |①-②-|
③②口① |③-④-|
④③口①
口④口口

口口口口
口口口⑤
口口口⑤ |----|
口口口口 |--⑤-|
24
③②②口 |①--②|
③口口口 |--③-|
口口①口
口口①口

口口口口
口④口口
口④口口 |④--⑤|
⑥⑤⑤⑥ |--⑥-|
25
口口⑤口 |--①②|
口④③口 |③④⑤-|
②口口①
口口口口

口口口口
⑨口口口
⑩口⑧口 |⑥⑦⑧-|
口⑥口⑦ |⑨-⑩-|
26
口⑦⑦口 |①-②-|
⑤①③口 |③-④-|
⑤②④口 |--⑤-|
口⑥⑥口 |⑥-⑦-|
27
口口口口 |①--②|
口③③① |--③-|
口口口①
②口口②

口口口口
口口口④
口口口⑤ |--④-|
口口口⑥ |⑤-⑥-|
28
口口②口 |----|
口口①③ |①-②-|
④⑤口口 |③-④-|
口口⑥口 |⑤-⑥-|
29
口口口口 |----|
口口①口 |----|
口口口② |----|
口口口口 |①-②-|
30
⑤口⑦口 |①-②-|
②⑥口口 |③-④-|
口③口口 |--⑤-|
口④口① |⑥-⑦-|
31
口②口口 |①--②|
②口②① |--③-|
口口③口
口③口③

口口口④
口口口⑤
口口口⑥ |--④-|
口口口口 |⑤-⑥-|
32
⑤④④⑤ |----|
口③③口 |①-②-|
口②②口 |--③-|
口①①口 |④-⑤-|
33
口口口口 |----|
口口口口 |----|
①①口口 |----|
口①口口 |--①-|
34
④④③② |①---|
⑤⑤③② |②-③-|
口口①口 |--④-|
口口口① |--⑤-|
35
③③口口 |--①-|
口口②口 |②-③-|
口②口①
口口①口

口口口④
口口④口
口口口口 |----|
口口口口 |--④-|
36
口口口口 |①-②-|
①口口④ |③-④-|
③①④②
口③②口

⑤⑥⑥口
口⑤口口
口口口口 |⑤---|
口⑦⑦口 |⑥-⑦-|
37
②②②口 |--①-|
①口口① |----|
口口③口 |----|
口口口口 |②-③-|
38
口口口口 |①---|
口口口口 |----|
口口口口
口①口①

口口口口
口④④口
口③③口 |--②-|
口②②口 |③-④-|
39
①口口① |--①-|
②⑤⑤② |②-③-|
③口口③ |--④-|
口④④口 |--⑤-|
40
②①①② |①---|
口口口口 |----|
③口口③ |--②-|
口④④口 |③-④-|
41
口口口口 |----|
口口③口 |----|
口②口口 |--①-|
口口①口 |②-③-|
42
①①①① |①---|
③口口③ |②-③-|
口口口口
②口口②

口口⑦口
口⑥⑦口
④⑥⑤④ |④-⑤-|
口口⑤口 |⑥-⑦-|
43
①③③① |--①-|
②口口② |--②-|
⑤口口⑤ |③---|
④口口④ |④-⑤-|
44
③④④② |①---|
③①①② |②-③-|
口①①口 |--④-|
口⑤⑤口 |--⑤-|
45
④⑤③② |--①-|
⑤④②③ |--②-|
口①①口 |③---|
口口口口 |④-⑤-|
46
口口②② |--①-|
口口①① |②-③-|
口口口口
③③口口

⑦⑦口口
口口⑥⑥
④④口口 |④-⑤-|
口口⑤⑤ |⑥-⑦-|
47
口口口口 |--①-|
②②口口 |--②-|
口口①①
口口口口

③③口口
口口口口
口口④口 |--③-|
口口④口 |--④-|
48
口口②口 |①--②|
①口②④ |--③-|
①③口④ |--④-|
口③⑤口 |--⑤-|
49
③口口③ |①--②|
⑥③③⑥ |--③-|
⑤②②⑤ |--④-|
④①口④ |⑤-⑥-|
50
口③③口 |①---|
口②②口 |②-③-|
口①①口
口口口口

④口口④
⑤口⑤口
⑤⑤口口 |--④-|
⑤口⑤口 |--⑤-|
51
②②①口 |--①-|
口①口① |--②-|
口口①口
口口口口

口口口口
③④④口
④③口④ |--③-|
③③口口 |--④-|
52
①②②① |①---|
口口口口 |②-③-|
口口口口
③口口③

口口口④
口口⑥⑤
口口⑤⑥ |--④-|
口口④口 |⑤-⑥-|
53
口③口口 |----|
②③口⑤ |--①-|
②①④⑤ |②-③-|
口①④口 |④-⑤-|
54
③口①③ |①---|
⑤口①⑤ |②-③-|
口④④口 |--④-|
②口口② |--⑤-|
55
口口口口 |--①-|
口①①口 |②-③-|
口②②口
口③③口

口④口口
⑤口⑤口
⑥口⑥口 |--④-|
口口口口 |⑤-⑥-|
56
口口口② |①---|
口口口③ |②-③-|
口口口口 |----|
①口①口 |----|
57
①口口① |--①-|
③口③口 |②-③-|
口口口口
②口口②

⑥④⑤口
口口口口
⑤④⑥口 |④---|
口口口口 |⑤-⑥-|


不确定度: 0

最終更新:2013年03月23日 20:31