Walkin', runnin', singin', fightin'
BREMEN

BASIC

Level: 1
BPM: 136
Notes: 128

1
口口口口 |----|
口口口口 |----|
口口口口 |----|
口口口口 |----|
2
口口口口 |①---|
口①②口 |----|
口口口口 |②---|
口口口口 |----|
3
口口口口 |①---|
口口口口 |----|
口①②口 |②---|
口口口口 |----|
4
口口口口 |①---|
口口口口 |----|
口口口口 |②---|
口①②口 |----|
5
③口口③ |①---|
②口口② |②---|
①口口① |③---|
口口口口 |----|
6
口口口口 |①---|
口①②口 |----|
口口口口 |②---|
口口口口 |----|
7
口口口口 |①---|
口口口口 |----|
口①②口 |②---|
口口口口 |----|
8
口口口口 |①---|
口口口口 |----|
口口口口 |②---|
口①②口 |----|
9
③口口③ |①---|
②口口② |②---|
①口口① |③---|
口口口口 |----|
10
口口口口 |①---|
口①口口 |----|
口口口口 |----|
口口口口 |----|
11
口口口口 |①---|
口口①口 |----|
口口口口 |----|
口口口口 |----|
12
口口口口 |①---|
口口口口 |----|
口①口口 |----|
口口口口 |----|
13
口口口口 |①---|
口口口口 |----|
口口①口 |----|
口口口口 |----|
14
口口口口 |①---|
口①口口 |----|
口口口口 |----|
口口口口 |----|
15
口口口口 |①---|
口口①口 |----|
口口口口 |----|
口口口口 |----|
16
口口口口 |①---|
口口口口 |----|
口①口口 |----|
口口口口 |----|
17
口口口口 |①---|
口口口口 |----|
口口①口 |----|
口口口口 |----|
18
①②③④ |①---|
口口口口 |②---|
口口口口 |③---|
口口口口 |④---|
19
口口口口 |①---|
口③②① |②---|
口口口口 |③---|
口口口口 |----|
20
口口口口 |①---|
口口口口 |----|
口①②口 |②---|
口口口口 |----|
21
口口口口 |①---|
口口口口 |②---|
口口口口 |③---|
口③②① |----|
22
口口口口 |①---|
口①②口 |----|
口口口口 |②---|
口口口口 |----|
23
口③②① |①---|
口口口口 |②---|
口口口口 |③---|
口口口口 |----|
24
口口口口 |①---|
口①②口 |----|
口口口口 |②---|
口口口口 |----|
25
口口口口 |①---|
口口口口 |②---|
口③②① |③---|
口口口口 |----|
26
①口口② |①---|
口口口口 |----|
口口口口 |②---|
口口口口 |----|
27
口口口口 |①---|
①口口② |----|
口口口口 |②---|
口口口口 |----|
28
口口口口 |①---|
口口口口 |----|
①口口② |②---|
口口口口 |----|
29
口口口口 |①---|
口口口口 |----|
口口口口 |②---|
①口口② |----|
30
口①②口 |①---|
口口口口 |----|
口口口口 |②---|
口口口口 |----|
31
口口口口 |①---|
口①②口 |----|
口口口口 |②---|
口口口口 |----|
32
口口口口 |①---|
口口口口 |----|
口①②口 |②---|
口口口口 |----|
33
口口口口 |①---|
②口口② |----|
口口口口 |②---|
①口口① |----|
34
口口口口 |----|
口口口口 |----|
口口口口 |----|
口口口口 |----|
35
口口口口 |①---|
口①②口 |----|
口口口口 |②---|
口口口口 |----|
36
口口口口 |①---|
口口口口 |----|
口①②口 |②---|
口口口口 |----|
37
口口口口 |①---|
口口口口 |----|
口口口口 |②---|
口①②口 |----|
38
③口口③ |①---|
②口口② |②---|
①口口① |③---|
口口口口 |----|
39
口口口口 |①---|
口①②口 |----|
口口口口 |②---|
口口口口 |----|
40
口口口口 |①---|
口口口口 |----|
口①②口 |②---|
口口口口 |----|
41
口口口口 |①---|
口口口口 |----|
口口口口 |②---|
口①②口 |----|
42
③口口③ |①---|
②口口② |②---|
①口口① |③---|
口口口口 |----|
43
口口口口 |①---|
口①②口 |----|
口口口口 |②---|
口口口口 |----|
44
口口口口 |①---|
口口口口 |----|
口①②口 |②---|
口口口口 |----|
45
口口口口 |①---|
口口口口 |----|
口口口口 |②---|
口①②口 |----|
46
③口口③ |①---|
②口口② |②---|
①口口① |③---|
口口口口 |----|
47
口口口口 |①---|
口①②口 |----|
口口口口 |②---|
口口口口 |----|
48
口口口口 |①---|
口口口口 |----|
口①②口 |②---|
口口口口 |----|
49
口口口口 |①---|
口口口口 |----|
口口口口 |②---|
口①②口 |----|
50
①口口① |①---|
②口口② |②---|
③口口③ |③---|
口口口口 |----|
51
口口口口 |①---|
口①口口 |----|
口口口口 |----|
口口口口 |----|
52
口口口口 |①---|
口口①口 |----|
口口口口 |----|
口口口口 |----|
53
口口口口 |①---|
口口口口 |----|
口口①口 |----|
口口口口 |----|
54
口口口口 |①---|
口口口口 |----|
口①口口 |----|
口口口口 |----|
55
口口口口 |①---|
口①口口 |----|
口口口口 |----|
口口口口 |----|
56
口口口口 |①---|
口口①口 |----|
口口口口 |----|
口口口口 |----|
57
口口口口 |①---|
口口口口 |----|
口口①口 |----|
口口口口 |----|
58
口口口口 |①---|
口口口口 |----|
口①口口 |----|
口口口口 |----|


不确定度: 0

最終更新:2013年03月23日 20:29