DOUBLE IMPACT
DOUBLE IMPACT

ADVANCED

Level: 7
BPM: 265
Notes: 462

1
口口口口 |----|
口口口口 |----|
口口口口 |----|
口口口口 |----|
2
口口口口 |----|
口口口口 |----|
口口口口 |----|
口口口口 |----|
3
口口口口 |①-②-|
口口口口 |③-④-|
口①②口 |----|
口③④口 |----|
4
口口口口 |----|
口口口口 |----|
口口口口 |----|
口口口口 |----|
5
口口口口 |①-②-|
口口口口 |③-④-|
口①②口 |----|
口③④口 |----|
6
口口口口 |----|
口口口口 |----|
口口口口 |----|
口口口口 |----|
7
口口口口 |①-②-|
⑤口口⑤ |③-④-|
口①②口 |----|
口③④口 |⑤---|
8
口口口口 |----|
口口口口 |----|
口口口口 |----|
口口口口 |----|
9
口口口口 |①---|
口口口口 |----|
口①①口 |----|
口口口口 |----|
10
口口口口 |①---|
口①①口 |----|
口口口口 |----|
口口口口 |----|
11
①口口③ |①---|
②口口④ |②---|
口口口口 |③---|
口口口口 |④---|
12
口①③口 |①---|
口②④口 |②---|
口口口口 |③---|
口口口口 |④---|
13
口口口口 |①---|
口口口口 |②---|
①口口③ |③---|
②口口④ |④---|
14
口口口口 |①---|
口口口口 |②---|
口①③口 |③---|
口②④口 |④---|
15
①口口① |①---|
口口口口 |----|
②口口⑤ |②-③-|
④口口③ |④-⑤-|
16
口口口口 |①---|
①①②② |----|
口口口口 |②---|
口口口口 |----|
17
②③④口 |①---|
口口口口 |②---|
口口口口 |③---|
口①口口 |④---|
18
口口口口 |①---|
口④③② |②---|
口口口口 |③---|
口口口① |④---|
19
口口口口 |①---|
口口口口 |②---|
口②④口 |③---|
①口口③ |④---|
20
口②④口 |①---|
①口口③ |②---|
口口口口 |③---|
口口口口 |④---|
21
①口口③ |①---|
口②④口 |②---|
口口口口 |③---|
口口口口 |④---|
22
口口口口 |①---|
口口口口 |②---|
①口口③ |③---|
口②④口 |④---|
23
口②④口 |①---|
口口口口 |②---|
口①③口 |③---|
口口口口 |④---|
24
口口口口 |①---|
口①③口 |②---|
口口口口 |③---|
口②④口 |④---|
25
④口口④ |①---|
③口口③ |②---|
②口口② |③---|
①口口① |④---|
26
口①①口 |①---|
口②②口 |②---|
口③③口 |③---|
口④④口 |④---|
27
①口口③ |①---|
②口口④ |②---|
口口口口 |③---|
口口口口 |④---|
28
口口口口 |①---|
口口口口 |②---|
口①③口 |③---|
口②④口 |④---|
29
口①③口 |①---|
口②④口 |②---|
口口口口 |③---|
口口口口 |④---|
30
口口口口 |①---|
口口口口 |②---|
①口口③ |③---|
②口口④ |④---|
31
口④②口 |①---|
口口口口 |②---|
口口口口 |③---|
口①③口 |④---|
32
口口口口 |①---|
①口口④ |②---|
③口口② |③---|
口口口口 |④---|
33
①口口① |①---|
口②②口 |②---|
口③③口 |③---|
④口口④ |④---|
34
口④④口 |①---|
③口口③ |②---|
②口口② |③---|
口①①口 |④---|
35
④口口口 |①---|
口③口口 |②---|
口②口口 |③---|
①口口口 |④---|
36
口口口④ |①---|
口口③口 |②---|
口口②口 |③---|
口口口① |④---|
37
口①①口 |①---|
②口口② |②---|
③口口③ |③---|
口④④口 |④---|
38
①口口① |①---|
口②②口 |②---|
口③③口 |③---|
④口口④ |④---|
39
④口②口 |①---|
口口口口 |②---|
①口口③ |③---|
口口口口 |④---|
40
口口口口 |①---|
口③②口 |②---|
口①④口 |③---|
口口口口 |④---|
41
口口口口 |①---|
口口口口 |②---|
口口口口 |③---|
①③④② |④---|
42
口口口口 |①---|
③口口④ |②---|
①口口② |③---|
口口口口 |④---|
43
④口口口 |①---|
口③口口 |②---|
口②口口 |③---|
①口口口 |④---|
44
口口口④ |①---|
口口③口 |②---|
口口②口 |③---|
口口口① |④---|
45
口①①口 |①---|
②口口② |②---|
③口口③ |③---|
口④④口 |④---|
46
①口口① |①---|
口②②口 |②---|
口③③口 |③---|
④口口④ |④---|
47
④②②④ |①---|
口口口口 |②---|
③口口③ |③---|
口①①口 |④---|
48
口④④口 |①---|
②口口② |②---|
口①①口 |③---|
口③③口 |④---|
49
①口口① |①---|
口口口口 |----|
②口口② |----|
口口口口 |②---|
50
口①①口 |①---|
口口口口 |----|
口口口口 |----|
口口口口 |----|
51
口口口口 |①---|
①口口口 |----|
口口口口 |----|
口口口口 |----|
52
口口口口 |----|
口①口口 |----|
口口②口 |①-②-|
口③④口 |③-④-|
53
口口口② |①---|
口口口口 |----|
口①口口 |----|
口口口口 |②---|
54
②口口口 |----|
口口口口 |----|
口口①口 |①---|
口口口口 |②---|
55
口口口口 |①---|
口口口口 |----|
口①口口 |----|
口口口口 |----|
56
口口口口 |①---|
口口口口 |----|
口口口口 |----|
口口①口 |----|
57
口口口③ |①---|
口口口口 |--②-|
口口②口 |----|
①口口口 |③---|
58
口口口口 |----|
口口口口 |----|
口口口口 |----|
口口口口 |----|
59
口口口口 |①---|
①口口口 |----|
口口口口 |----|
口口口口 |----|
60
口口口口 |----|
口①口口 |----|
口口②口 |①-②-|
口③④口 |③-④-|
61
口口口② |①---|
口口口口 |----|
口①口口 |----|
口口口口 |②---|
62
口口口口 |----|
②口口口 |----|
口口①口 |①---|
口口口口 |②---|
63
口口口① |①---|
口口口口 |----|
口口口口 |----|
口口口口 |----|
64
口口口口 |①---|
口口口口 |----|
口口口口 |----|
口口①口 |----|
65
口口口③ |①---|
口口口口 |--②-|
口口②口 |----|
①口口口 |③---|
66
口口口口 |----|
口口口口 |----|
口口口口 |----|
口口口口 |----|
67
口口口口 |①---|
①口口口 |----|
口口口口 |----|
口口口口 |----|
68
口口口口 |①---|
口口③① |--②-|
口②口口 |----|
口口口口 |③---|
69
口①①口 |①---|
口口口口 |----|
口口口口 |----|
口口口口 |----|
70
①口口① |①---|
②口口② |--②-|
③口口③ |----|
口口口口 |③---|
71
口口口口 |①---|
口②④口 |②---|
口口口口 |③---|
口①③口 |④---|
72
④口口⑤ |①---|
③口口口 |②---|
口①②口 |③---|
口口口口 |④-⑤-|
73
口④口口 |--①-|
口口⑤口 |②-③-|
口⑥口① |④-⑤-|
②口⑦③ |⑥-⑦-|
74
①口口⑥ |①-②-|
⑤口口② |--③-|
③口口④ |④---|
口口口口 |⑤-⑥-|
75
口①口口 |①---|
口②③口 |②-③-|
口④⑤口 |--④-|
口口口口 |⑤---|
76
①⑤⑧口 |①-②-|
口⑦⑥② |③-④-|
③口口口 |⑤-⑥-|
口口口④ |⑦-⑧-|
77
口口口④ |①---|
③口口口 |②---|
口口口② |③---|
①口口口 |④---|
78
⑦⑦口口 |①-②-|
口①④口 |③-④-|
口⑤②口 |⑤-⑥-|
口③⑥口 |⑦---|
79
口口口口 |①---|
①口口③ |②---|
口口口口 |③---|
②口口④ |④---|
80
①口口③ |①---|
口口口口 |②---|
②口口④ |③---|
口口口口 |④---|
81
口口口口 |①---|
口①③口 |②---|
口口口口 |③---|
口②④口 |④---|
82
口③口口 |①---|
口口口口 |②---|
口①②口 |③---|
口口口口 |----|
83
①口口口 |①---|
口②③口 |②-③-|
口④⑤口 |--④-|
口口口口 |⑤---|
84
口口口口 |①---|
口口口口 |②---|
①口口④ |③---|
②口口③ |④---|
85
口②③口 |①---|
①口口④ |②---|
口口口口 |③---|
口口口口 |④---|
86
口口口口 |①---|
口③口口 |②---|
口①②口 |③---|
口口口口 |----|
87
口口口① |①---|
口口口② |②---|
口口口③ |③---|
口口口④ |④---|
88
①口口口 |①---|
②口口口 |②---|
③口口口 |③---|
④口口口 |④---|
89
口②①口 |①---|
口④③口 |②---|
口口口口 |③---|
口口口口 |④---|
90
口口口口 |①---|
口口口口 |②---|
口②①口 |③---|
口④③口 |④---|
91
口口口口 |①---|
②口口口 |----|
③口口口 |②---|
口口口① |③---|
92
口口口口 |①---|
口①③口 |②---|
口②④口 |③---|
口口口口 |④---|
93
口口口口 |①---|
口口口① |②---|
口口口② |③---|
口③④口 |④---|
94
①②③口 |①---|
口口口口 |--②-|
口口口口 |----|
口口口口 |③---|
95
口口口口 |①---|
口口口口 |②---|
①口口③ |③---|
口②④口 |④---|
96
口口口口 |①---|
①口口③ |②---|
口②口口 |③---|
口口口口 |----|
97
①口口③ |①---|
口②④口 |②---|
口口口口 |③---|
口口口口 |④---|
98
口口口口 |①---|
①口口口 |②---|
口②口口 |----|
口口口口 |----|
99
口②③口 |①---|
口口口口 |②---|
①口口④ |③---|
口口口口 |④---|
100
口口口口 |①---|
口③②口 |②---|
口口口口 |③---|
④口口① |④---|
101
口口口口 |①---|
③口口④ |②---|
口①②口 |③---|
口口口口 |④---|
102
①口口口 |①---|
口口口口 |----|
口口口口 |----|
口口口口 |----|
103
口口①① |①---|
口口口② |②---|
口口口③ |③---|
口口口④ |④---|
104
①①口口 |①---|
②口口口 |②---|
③口口口 |③---|
④口口口 |④---|
105
口口①① |①---|
口口②口 |②---|
口口③口 |③---|
口口④口 |④---|
106
①①口口 |①---|
口②口口 |②---|
口③口口 |③---|
口④口口 |④---|
107
②②①① |①---|
④④③③ |②---|
口口口口 |③---|
口口口口 |④---|
108
口口口口 |①---|
口口口口 |②---|
②②①① |③---|
④④③③ |④---|
109
口①①口 |①---|
口②②口 |----|
口口口口 |----|
口口口口 |②---|
110
①口口① |①---|
口口口口 |----|
口口口口 |----|
口口口口 |----|
111
口口口口 |----|
口口口口 |----|
口口口口 |----|
口口口口 |----|
112
口口口口 |----|
口口口口 |----|
口口口口 |----|
口口口口 |----|
113
口口口口 |①-②-|
口口口口 |③-④-|
口①②口 |----|
口③④口 |----|
114
口口口口 |----|
口口口口 |----|
口口口口 |----|
口口口口 |----|
115
口口口口 |①-②-|
口口口口 |③-④-|
口①②口 |----|
口③④口 |----|
116
口口口口 |----|
口口口口 |----|
口口口口 |----|
口口口口 |----|
117
口①①口 |①---|
口口口口 |----|
口②②口 |②---|
口口口口 |----|
118
口口口口 |①---|
②①①② |----|
口口口口 |②---|
口口口口 |----|
119
口①①口 |①---|
口口口口 |----|
口口口口 |----|
口口口口 |----|
120
①口口① |①---|
口口口口 |----|
口口口口 |----|
口口口口 |----|
121
口口口口 |①-②-|
口口口口 |③-④-|
①①②② |----|
③③④④ |----|

不确定度: 0

最終更新:2012年11月06日 22:26