Walkin', runnin', singin', fightin'
BREMEN

ADVANCED

Level: 5
BPM: 136
Notes: 342

1
口①口口 |----|
口口口口 |----|
口口口口 |----|
口口口口 |--①-|
2
口口①口 |①--②|
④口⑤口 |--③-|
③口②口 |④--⑤|
口口⑥口 |--⑥-|
3
口⑥口口 |①--②|
口②口③ |--③-|
口⑤口④ |④--⑤|
口①口口 |--⑥-|
4
口口①口 |①--②|
④口⑤口 |--③-|
③口②口 |④--⑤|
口口⑥口 |--⑥-|
5
口⑤口口 |①--②|
口②口③ |--③-|
口口口④ |④---|
口①口口 |--⑤-|
6
口口①口 |①--②|
④口⑤口 |--③-|
③口②口 |④--⑤|
口口⑥口 |--⑥-|
7
口⑥口口 |①--②|
口②口③ |--③-|
口⑤口④ |④--⑤|
口①口口 |--⑥-|
8
口口①口 |①--②|
④口⑤口 |--③-|
③口②口 |④--⑤|
口口⑥口 |--⑥-|
9
口口口口 |①--②|
口②口③ |--③-|
口⑤⑤④ |④---|
口①口口 |⑤---|
10
②口口③ |①-②③|
④①①口 |----|
口⑤口口 |--④-|
口口⑥口 |⑤-⑥-|
11
②口口③ |①-②③|
口①①④ |----|
口口⑤口 |--④-|
口⑥口口 |⑤-⑥-|
12
③口口② |①-②③|
口①①口 |----|
④口口⑤ |--④-|
口口口口 |⑤---|
13
②口口③ |①-②③|
④①①口 |----|
口⑤口口 |--④-|
口口⑥口 |⑤-⑥-|
14
②口口③ |①-②③|
④①①④ |----|
口⑤⑤口 |--④-|
口⑥⑥口 |⑤-⑥-|
15
②口口③ |①-②③|
口①①④ |----|
口口⑤口 |--④-|
口⑥口口 |⑤-⑥-|
16
③口口② |①-②③|
口①①口 |----|
④口口⑤ |--④-|
口口口口 |⑤---|
17
②口口③ |①-②③|
口①①口 |----|
口口口口
口口口口

口口口口
口④⑤口
口口口口 |----|
口口口口 |④-⑤-|
18
④口口口 |①---|
口口口① |②---|
口口口口 |③---|
③口口② |④---|
19
④口口⑤ |①---|
口③③口 |②---|
口②②口 |③-④-|
口①①口 |⑤---|
20
④口口③ |①---|
④口口口 |②-③-|
口⑥⑤② |--④-|
①口口② |⑤-⑥-|
21
口口口口 |--①-|
口①②③ |②-③-|
口口口口
口口口口

口口口口
口④⑤口
口口口口 |----|
口口口口 |④-⑤-|
22
④口口口 |①---|
口口口① |②---|
口口口口 |③---|
③口口② |④---|
23
④口口⑤ |①---|
口③③口 |②---|
口②②口 |③-④-|
口①①口 |⑤---|
24
④口口③ |①---|
④口口口 |②-③-|
口⑤⑤② |--④-|
①口口② |--⑤-|
25
④口口口 |--①-|
口①②③ |②-③-|
口口口口 |----|
口口口口 |④---|
26
口口口① |①---|
口口口口 |②---|
口④④口 |③---|
②口口③ |④---|
27
①口口① |①---|
②口口② |②---|
③口口③ |③---|
④口口④ |④---|
28
口④④口 |①---|
口③③口 |②---|
口②②口 |③---|
口①①口 |④---|
29
③口口③ |①---|
②口口② |--②-|
口④④口 |③---|
①口口① |④---|
30
口①①口 |①---|
②口口② |②---|
口③③口 |③---|
④口口④ |④---|
31
口③④口 |①---|
③口口④ |②---|
①口口② |③---|
口①②口 |④---|
32
口口口口 |①---|
口①②口 |②---|
口③④口 |③---|
口口口口 |④---|
33
口①①口 |①---|
口口口口 |--②-|
③口口③ |③---|
口②②口 |----|
34
口②口口 |①---|
口①①口 |----|
口口口口 |----|
口口口口 |--②-|
35
口口①口 |①--②|
④口⑤口 |--③-|
③口②口 |④--⑤|
口口⑥口 |--⑥-|
36
口⑥口口 |①--②|
口②口③ |--③-|
口⑤口④ |④--⑤|
口①口口 |--⑥-|
37
口口①口 |①--②|
④口⑤口 |--③-|
③口②口 |④--⑤|
口口⑥口 |--⑥-|
38
口⑤口口 |①--②|
口②口③ |--③-|
口口口④ |④---|
口①口口 |--⑤-|
39
口口①口 |①--②|
④口⑤口 |--③-|
③口②口 |④--⑤|
口口⑥口 |--⑥-|
40
口⑥口口 |①--②|
口②口③ |--③-|
口⑤口④ |④--⑤|
口①口口 |--⑥-|
41
口口①口 |①--②|
④口⑤口 |--③-|
③口②口 |④--⑤|
口口⑥口 |--⑥-|
42
口⑤口口 |①--②|
口②口③ |--③-|
口口口④ |④---|
口①口口 |--⑤-|
43
口口①口 |①--②|
④口⑤口 |--③-|
③口②口 |④--⑤|
口口⑥口 |--⑥-|
44
口⑥口口 |①--②|
口②口③ |--③-|
口⑤口④ |④--⑤|
口①口口 |--⑥-|
45
口口①口 |①--②|
④口⑤口 |--③-|
③口②口 |④--⑤|
口口⑥口 |--⑥-|
46
口⑤口口 |①--②|
口②口③ |--③-|
口口口④ |④---|
口①口口 |--⑤-|
47
口口①口 |①--②|
④口⑤口 |--③-|
③口②口 |④--⑤|
口口⑥口 |--⑥-|
48
口⑥口口 |①--②|
口②口③ |--③-|
口⑤口④ |④--⑤|
口①口口 |--⑥-|
49
口口①口 |①--②|
④口⑤口 |--③-|
③口②口 |④--⑤|
口口⑥口 |--⑥-|
50
口口口口 |①--②|
口②口③ |--③-|
口口口④ |④---|
口①口口 |----|
51
①②③④ |①---|
①口口口 |----|
口口口口 |--②-|
口口口口 |③-④-|
52
口口口口 |①---|
口口口口 |----|
口口口① |--②-|
④③②① |③-④-|
53
①②口④ |①---|
①口③口 |----|
口口口口 |--②-|
口口口口 |③-④-|
54
口口口口 |①---|
口口口口 |----|
口口口① |--②-|
④③②① |③-④-|
55
①②③④ |①---|
①口口口 |----|
口口口口 |--②-|
口口口口 |③-④-|
56
口口口口 |①---|
口口口口 |----|
口口口① |--②-|
④③②① |③-④-|
57
①②③④ |①---|
①口口口 |----|
口口口口 |--②-|
口口口口 |③-④-|
58
口口口口 |①---|
口口口口 |----|
口口口① |--②-|
④③②① |③-④-|


不确定度: 0

最終更新:2013年03月23日 20:28