Walkin', runnin', singin', fightin'
BREMEN

EXTREME

Level: 8
BPM: 136
Notes: 603

1
口口口口 |----|
口口口口 |----|
口口口口 |----|
口①①口 |--①-|
2
①④④① |①-②③|
口②③口 |--④-|
⑧⑥⑦⑧ |⑤-⑥⑦|
⑤口口⑤ |--⑧-|
3
⑤口口⑤ |①-②③|
①②③① |--④-|
口⑥⑦口 |⑤-⑥⑦|
④⑧⑧④ |--⑧-|
4
⑤①①⑤ |①-②③|
②口口③ |--④-|
⑥口口⑦ |⑤-⑥⑦|
④⑧⑧④ |--⑧-|
5
口①①口 |①-②③|
⑤口口⑤ |--④-|
④③③④ |⑤---|
②⑥⑥② |--⑥-|
6
①④④① |①-②③|
口②③口 |--④-|
⑧⑥⑦⑧ |⑤-⑥⑦|
⑤口口⑤ |--⑧-|
7
⑤口口⑤ |①-②③|
①②③① |--④-|
口⑥⑦口 |⑤-⑥⑦|
④⑧⑨④ |--⑧⑨|
8
口②③口 |①-②③|
④⑥⑦① |--④-|
④⑤⑤① |⑤-⑥⑦|
口⑧⑧口 |--⑧-|
9
①⑤⑤① |①-②③|
口④④口 |--④-|
口⑥⑥口 |⑤---|
②口口③ |⑥---|
10
③口口⑥ |①-②③|
②⑦⑦⑤ |----|
口口口④ |--④⑤|
①口口口 |⑥-⑦-|
11
③口口⑥ |①-②③|
②口口⑤ |----|
口⑦⑦④ |--④⑤|
①口口口 |⑥-⑦-|
12
①口口⑥ |①-②③|
口口口⑤ |----|
②口口④ |--④⑤|
③口口口 |⑥---|
13
③口口⑥ |①-②③|
②⑦⑦⑤ |----|
口口口④ |--④⑤|
①口口口 |⑥-⑦-|
14
③口口⑥ |①-②③|
②⑦⑦⑤ |----|
口口口④ |--④⑤|
①口口口 |⑥-⑦-|
15
③口口⑥ |①-②③|
②口口⑤ |----|
口⑦⑦④ |--④⑤|
①口口口 |⑥-⑦-|
16
①口口⑥ |①-②③|
口口口⑤ |----|
②口口④ |--④⑤|
③口口口 |⑥---|
17
③⑥口口 |①-②③|
②口⑦⑤ |----|
口口口④ |--④⑤|
①口口口 |⑥-⑦-|
18
⑤口口⑦ |①-②-|
口⑥⑧口 |③-④-|
口②④口 |⑤-⑥-|
①口口③ |⑦-⑧-|
19
④③③⑤ |①---|
③口口③ |②---|
口②②口 |③-④-|
口①①口 |⑤---|
20
④口口④ |①---|
⑤②②口 |②-③-|
③⑥口③ |--④-|
口①①口 |⑤-⑥-|
21
口④③口 |--①-|
口口⑤② |②-③-|
口口①口 |----|
口口口口 |④-⑤-|
22
⑤口口⑦ |①-②-|
口⑥⑧口 |③-④-|
口②④口 |⑤-⑥-|
①口口③ |⑦-⑧-|
23
④③③⑤ |①---|
③口口③ |②---|
口②②口 |③-④-|
口①①口 |⑤---|
24
口口口口 |①---|
③①①③ |②-③-|
⑤口口口 |--④-|
②④④② |--⑤-|
25
口口③口 |--①-|
口口口② |②-③-|
口⑤①口 |----|
口④④口 |④-⑤-|
26
⑤⑧口⑦ |①-②-|
口④⑥口 |③-④-|
口口②口 |⑤-⑥-|
①口口③ |⑦-⑧-|
27
⑥口口⑦ |①-②-|
口⑤⑤口 |③-④-|
②③③④ |⑤-⑥-|
口①①口 |⑦---|
28
⑦口口⑦ |①-②-|
⑤⑥⑧⑤ |③-④-|
③②④③ |⑤-⑥-|
①口口① |⑦-⑧-|
29
口口口④ |①---|
②⑤口③ |--②-|
口①①口 |③---|
口口口口 |④-⑤-|
30
⑦口口⑦ |①-②-|
③⑧②③ |③-④-|
①④⑥① |⑤-⑥-|
⑤口口⑤ |⑦-⑧-|
31
口⑦⑦口 |①-②-|
⑤⑧②⑤ |③-④-|
③④⑥③ |⑤-⑥-|
口①①口 |⑦-⑧-|
32
口口口口 |①-②-|
⑤⑧②⑦ |③-④-|
①④⑥③ |⑤-⑥-|
⑤口口⑦ |⑦-⑧-|
33
口②②口 |①---|
③口口③ |--②-|
口③③口 |③---|
口①①口 |----|
34
口口口口 |①②③④|
口①②口 |⑤---|
口③④口
口⑤口口

口口口口
口口口口
口口口口 |----|
⑥⑦⑦口 |⑥-⑦-|
35
①④④① |①-②③|
口②③口 |--④-|
⑧⑥⑦⑧ |⑤-⑥⑦|
⑤口口⑤ |--⑧-|
36
⑤口口⑤ |①-②③|
①②③① |--④-|
口⑥⑦口 |⑤-⑥⑦|
④⑧⑧④ |--⑧-|
37
⑤①①⑤ |①-②③|
②口口③ |--④-|
⑥口口⑦ |⑤-⑥⑦|
④⑧⑧④ |--⑧-|
38
口①①口 |①-②③|
口口口口 |--④-|
④③③④
②口口②

口⑥⑦口
⑤口口⑤
口口口口 |⑤-⑥⑦|
⑧⑨⑨⑧ |⑧-⑨-|
39
①④④① |①-②③|
口②③口 |--④-|
⑧⑥⑦⑧ |⑤-⑥⑦|
⑤口口⑤ |--⑧-|
40
⑤口口⑤ |①-②③|
①②③① |--④-|
口⑥⑦口 |⑤-⑥⑦|
④⑧⑨④ |--⑧⑨|
41
口②③口 |①-②③|
④⑥⑦① |--④-|
④⑤⑤① |⑤-⑥⑦|
口⑧⑧口 |--⑧-|
42
①⑤⑤① |①-②③|
口④④口 |--④-|
口口口口 |⑤---|
②⑥⑥③ |--⑥-|
43
①④④① |①-②③|
口②③口 |--④-|
⑧⑥⑦⑧ |⑤-⑥⑦|
⑤口口⑤ |--⑧-|
44
⑤口口⑤ |①-②③|
①②③① |--④-|
口⑥⑦口 |⑤-⑥⑦|
④⑧⑧④ |--⑧-|
45
⑤①①⑤ |①-②③|
②口口③ |--④-|
⑥口口⑦ |⑤-⑥⑦|
④⑧⑧④ |--⑧-|
46
口①①口 |①-②③|
口口口口 |--④-|
④③③④
②口口②

口⑥⑦口
⑤口口⑤
口口口口 |⑤-⑥⑦|
⑧⑨⑨⑧ |⑧-⑨-|
47
①④④① |①-②③|
口②③口 |--④-|
⑧⑥⑦⑧ |⑤-⑥⑦|
⑤口口⑤ |--⑧-|
48
⑤口口⑤ |①-②③|
①②③① |--④-|
口⑥⑦口 |⑤-⑥⑦|
④⑧⑨④ |--⑧⑨|
49
口②③口 |①-②③|
④⑥⑦① |--④-|
④⑤⑤① |⑤-⑥⑦|
口⑧⑧口 |--⑧-|
50
①口口① |①-②③|
②口口③ |--④-|
④口口④
口口口口

口⑧⑧口
⑨口口⑨
口⑥⑦口 |⑤-⑥⑦|
⑤口口⑤ |⑧-⑨-|
51
②口口③ |①-②③|
⑧④④⑧ |--④-|
口⑤⑥口 |--⑤⑥|
⑦①①⑦ |⑦-⑧-|
52
②口口③ |①-②③|
⑧④④⑧ |--④-|
口⑤⑥口 |--⑤⑥|
⑦①①⑦ |⑦-⑧-|
53
口①①口 |①-②③|
⑦口口⑦ |--④-|
②⑤⑥③ |--⑤⑥|
⑧④④⑧ |⑦-⑧-|
54
②口口③ |①-②③|
⑧④④⑧ |--④-|
口⑤⑥口 |--⑤⑥|
⑦①①⑦ |⑦-⑧-|
55
②口口③ |①-②③|
⑧④④⑧ |--④-|
口⑤⑥口 |--⑤⑥|
⑦①①⑦ |⑦-⑧-|
56
②口口③ |①-②③|
⑧④④⑧ |--④-|
口⑤⑥口 |--⑤⑥|
⑦①①⑦ |⑦-⑧-|
57
②口口③ |①-②③|
⑧④④⑧ |--④-|
口⑤⑥口 |--⑤⑥|
⑦①①⑦ |⑦-⑧-|
58
②口口③ |①-②③|
⑧④④⑧ |--④-|
口⑤⑥口 |--⑤⑥|
⑦①①⑦ |⑦-⑧-|


不确定度: 0

最終更新:2013年03月23日 20:28