Whatever
SOULHEAD

BASIC

Level: 2
BPM: 120
Notes: 176

1
口口口口 |----|
口口口口 |----|
口口口口 |----|
口口口口 |----|
2
口口口口 |①---|
口①①口 |----|
口②②口 |②---|
口口口口 |----|
3
口口口口 |①---|
口口口口 |②---|
口口口口 |③---|
①②③口 |----|
4
口口口口 |①---|
②口口② |----|
①口口① |②---|
口口口口 |----|
5
①②②① |①---|
口③③口 |----|
口口口口 |②---|
口口口口 |③---|
6
口口口口 |①---|
②口口② |----|
口①①口 |②---|
口口口口 |----|
7
口①②③ |①---|
口口口口 |②---|
口口口口 |③---|
口口口口 |----|
8
口口口口 |①---|
①口口① |----|
口②②口 |②---|
口口口口 |----|
9
口口口口 |①---|
口口口口 |----|
②口口③ |②---|
口①①口 |③---|
10
口口口口 |①---|
口①①口 |----|
口②②口 |②---|
口口口口 |----|
11
口口口口 |①---|
口口口口 |②---|
口口口口 |③---|
①②③口 |----|
12
口口口口 |①---|
②口口② |----|
①口口① |②---|
口口口口 |----|
13
①②②① |①---|
口③③口 |----|
口口口口 |②---|
口口口口 |③---|
14
口口口口 |①---|
②口口② |----|
口①①口 |②---|
口口口口 |----|
15
口①②③ |①---|
口口口口 |②---|
口口口口 |③---|
口口口口 |----|
16
口口口口 |①---|
①口口① |----|
口②②口 |②---|
口口口口 |----|
17
口口口口 |①---|
口口口口 |----|
②口口③ |②---|
口①①口 |③---|
18
口口口口 |①---|
口①①口 |----|
口口口口 |----|
口口口口 |----|
19
口①②口 |①---|
③口口④ |②---|
口口口口 |③---|
口口口口 |④---|
20
口口口口 |①---|
口口口口 |②---|
口①②口 |----|
③口口口 |③---|
21
口口口口 |①---|
口口口口 |②---|
口口口口 |----|
口①②口 |----|
22
口口口口 |①---|
口口口口 |----|
口①①口 |----|
口口口口 |----|
23
①口口② |①---|
口③④口 |②---|
口口口口 |③---|
口口口口 |④---|
24
口口口口 |①---|
口口口口 |②---|
①口口② |----|
口口口③ |③---|
25
口口口口 |①---|
口口口口 |②---|
口口口口 |----|
口②①口 |----|
26
口口口口 |①---|
①①②② |----|
口口口口 |②---|
口口口口 |----|
27
口口口口 |①---|
口口口口 |----|
①①②② |②---|
口口口口 |----|
28
口口口口 |①---|
口口口口 |----|
口口口口 |②---|
①①②② |----|
29
②口口口 |①---|
口口口口 |----|
口①①口 |----|
口口口口 |②---|
30
口口口① |①---|
口②③口 |②---|
④口口口 |③---|
口口口口 |④---|
31
口口口口 |①---|
口口口口 |②---|
口口口① |③---|
口②③口 |----|
32
口口口口 |①---|
口①①口 |----|
口②②口 |②---|
口口口口 |----|
33
口口口口 |①---|
口口口口 |②---|
口口口口 |③---|
①②③口 |----|
34
口口口口 |①---|
②口口② |----|
①口口① |②---|
口口口口 |----|
35
①②②① |①---|
口③③口 |----|
口口口口 |②---|
口口口口 |③---|
36
口口口口 |①---|
②口口② |----|
口①①口 |②---|
口口口口 |----|
37
口①②③ |①---|
口口口口 |②---|
口口口口 |③---|
口口口口 |----|
38
口口口口 |①---|
①口口① |----|
口②②口 |②---|
口口口口 |----|
39
口口口口 |①---|
口口口口 |----|
②口口③ |②---|
口①①口 |③---|
40
口口口口 |①---|
口①①口 |----|
口②②口 |②---|
口口口口 |----|
41
口口口口 |①---|
口口口口 |②---|
口口口口 |③---|
①②③口 |----|
42
口口口口 |①---|
②口口② |----|
①口口① |②---|
口口口口 |----|
43
①②②① |①---|
口③③口 |----|
口口口口 |②---|
口口口口 |③---|
44
口口口口 |①---|
②口口② |----|
口①①口 |②---|
口口口口 |----|
45
口①②③ |①---|
口口口口 |②---|
口口口口 |③---|
口口口口 |----|
46
口口口口 |①---|
①口口① |----|
口②②口 |②---|
口口口口 |----|
47
口口口口 |①---|
口口口口 |----|
②口口③ |②---|
口①①口 |③---|
48
②口口② |①---|
口①①口 |--②-|
口口口口 |----|
口口口口 |----|


不确定度: 0

最終更新:2013年03月23日 17:18