Whatever
SOULHEAD

ADVANCED

Level: 6
BPM: 120
Notes: 408

1
口口口口 |----|
口口口口 |----|
口口口口 |----|
口口口口 |----|
2
⑦⑦④④ |①-②-|
③③⑥⑥ |③-④-|
⑤⑤②② |--⑤-|
①口口口 |⑥-⑦-|
3
口口①口 |①-②-|
口②口口 |③-④-|
口口③口
口④口口

口口口⑤
口⑧口口
⑧⑦口口 |⑤-⑥-|
⑦口口⑥ |⑦-⑧-|
4
口①口口 |①---|
①④②口 |--②-|
口⑤③口 |③-④-|
⑥口口口 |⑤-⑥-|
5
口④⑤⑥ |①---|
②口口③ |②-③-|
口口口口 |④-⑤-|
口口口① |⑥---|
6
④④⑦⑦ |①-②-|
⑥⑥③③ |③-④-|
②②⑤⑤ |--⑤-|
口①①口 |⑥-⑦-|
7
口①⑦⑦ |①-②-|
口口②口 |③-④-|
口③口口 |⑤---|
⑥⑤④口 |⑥-⑦-|
8
口口口口 |----|
①①③③ |①-②-|
口口口口 |----|
④④②② |③-④-|
9
⑦⑥⑤口 |----|
口口口④ |--①②|
①②③口 |③-④-|
口口口口 |⑤⑥⑦-|
10
口④④④ |①-②-|
③③⑦⑦ |③-④-|
⑥⑥②② |--⑤-|
①①⑤⑤ |⑥-⑦-|
11
口①①口 |①-②-|
口②口口 |③-④-|
口口③③
口④口口

口口口⑤
口⑧口口
⑧⑦口口 |⑤-⑥-|
⑦口口⑥ |⑦-⑧-|
12
口①口口 |①---|
①④②口 |--②-|
口⑤③口 |③-④-|
⑥口口口 |⑤-⑥-|
13
口④⑤⑥ |①---|
②口口③ |②-③-|
口口口⑦ |④-⑤-|
口口口① |⑥-⑦-|
14
④④④口 |①-②-|
口口③③ |③-④-|
②②口口
口①①口

口口口口
⑦⑦口口
口口⑥⑥ |--⑤-|
⑤⑤口口 |⑥-⑦-|
15
口①①口 |①-②-|
口口②口 |③-④-|
③③口口
口口④口

口口⑦⑦
口口口口
口口口口 |⑤---|
⑥⑤口口 |⑥-⑦-|
16
口口口口 |----|
①①③③ |①-②-|
口口口口 |----|
④④②② |③-④-|
17
⑦⑥⑤口 |----|
口口口④ |--①②|
①②③口 |③-④-|
口口口口 |⑤⑥⑦-|
18
口②③口 |①---|
口口口口 |----|
口口口口 |----|
①口口① |--②③|
19
口口口① |①-②③|
④③②口 |④-⑤⑥|
口⑤⑥⑦ |⑦-⑧⑨|
⑩⑨⑧⑪ |⑩-⑪-|
20
口④口口 |①---|
口②②口 |②---|
①口口口 |--③-|
口③⑤口 |④-⑤-|
21
口口①口 |①-②-|
口口口口 |③---|
口口②口 |----|
③口口口 |----|
22
口③②口 |①---|
口口口口 |----|
口口口口 |----|
口①①口 |--②③|
23
①口口口 |①-②③|
口②③④ |④-⑤⑥|
⑦⑥⑤⑫ |⑦-⑧⑨|
⑪⑧⑨⑩ |⑩-⑪⑫|
24
口④口口 |①---|
①口口口 |②---|
口②②口 |--③-|
口③⑤口 |④-⑤-|
25
口口①口 |①---|
②口口② |②---|
口口口口 |----|
口口口口 |----|
26
③②口① |①---|
口⑥口口 |②-③-|
口口⑤口 |--④-|
口④口口 |⑤-⑥-|
27
口口口口 |----|
①口⑤② |①-②-|
口④口口 |--③-|
口口③口 |④-⑤-|
28
口口口口 |----|
口口口口 |①-②-|
①④④② |--③-|
口③③口 |--④-|
29
口口口口 |--①-|
①④口① |----|
口口③口 |--②-|
口②口口 |③-④-|
30
③③①① |①---|
口口②口 |②-③-|
口口口口
口口口口

口口口口
口口⑥⑥
口⑤口口 |--④-|
口口④口 |⑤-⑥-|
31
口口口① |--①-|
②口④④ |②-③-|
⑤⑤口③ |----|
口口口口 |④-⑤-|
32
口④④④ |①-②-|
③③⑦⑦ |③-④-|
⑥⑥②② |--⑤-|
①①⑤⑤ |⑥-⑦-|
33
口①①口 |①-②-|
口②口口 |③-④-|
口口③③
口④口口

口口口⑤
口⑧口口
⑧⑦口口 |⑤-⑥-|
⑦口口⑥ |⑦-⑧-|
34
口①口口 |①---|
①④②口 |--②-|
口⑤③口 |③-④-|
⑥口口口 |⑤-⑥-|
35
口④⑤⑥ |①---|
②口口③ |②-③-|
口口口⑦ |④-⑤-|
口口口① |⑥-⑦-|
36
④④④口 |①-②-|
口口③③ |③-④-|
②②口口
口①①口

口口口口
⑦⑦口口
口口⑥⑥ |--⑤-|
⑤⑤口口 |⑥-⑦-|
37
口①①④ |①-②-|
口口②口 |③-④-|
③③口口
口口口口

口口口口
口口⑦⑦
口口口口 |⑤---|
⑥口⑤⑤ |⑥-⑦-|
38
口口口口 |----|
①①③③ |①-②-|
口口口口 |----|
④④②② |③-④-|
39
⑦⑥⑤口 |----|
口④口口 |--①②|
口①②③ |③-④-|
口口口口 |⑤⑥⑦-|
40
口④④④ |①-②-|
③③⑦⑦ |③-④-|
⑥⑥②② |--⑤-|
①①⑤⑤ |⑥-⑦-|
41
口①①口 |①-②-|
口②口口 |③-④-|
口口③③
口④口口

⑤口口口
口口口口
口口⑧⑧ |⑤-⑥-|
⑥口⑦⑦ |⑦-⑧-|
42
口口口口 |①---|
口②①① |--②-|
口口口口
口口口口

口口口口
口口④口
口③⑤口 |③-④-|
⑥口口口 |⑤-⑥-|
43
口④⑤⑥ |①---|
②口口③ |②-③-|
口口口⑦ |④-⑤-|
口口口① |⑥-⑦-|
44
④④⑦⑦ |①-②-|
⑥⑥③③ |③-④-|
②②⑤⑤ |--⑤-|
口①①口 |⑥-⑦-|
45
①①⑦⑦ |①-②-|
口口②口 |③-④-|
③③口口 |⑤---|
⑤⑤④⑥ |⑥-⑦-|
46
口口口口 |----|
①①③③ |①-②-|
口口口口 |----|
④④②② |③-④-|
47
⑦⑥⑤口 |----|
口④口口 |--①②|
口①②③ |③-④-|
口口口口 |⑤⑥⑦-|
48
口②②口 |①---|
①口口① |--②-|
口口口口 |----|
口口口口 |----|


不确定度: 0

最終更新:2013年03月23日 17:18