Whatever
SOULHEAD

EXTREME

Level: 8
BPM: 120
Notes: 567

1
口口口口 |----|
口口口口 |----|
口口口口 |----|
口口口口 |----|
2
口④⑦口 |①-②-|
④③⑥⑦ |③-④-|
⑤⑥③② |--⑤-|
①⑤②① |⑥-⑦-|
3
②口口④ |①-②-|
口②④口 |③-④-|
③口口①
口③①口

口口⑧口
⑤⑦口⑤
口⑧口口 |⑤-⑥-|
⑥口⑦⑥ |⑦-⑧-|
4
口①口口 |①---|
口口①② |--②-|
②口口口
口口口口

口④④口
③口口口
口⑤⑤③ |③-④-|
⑥口口⑥ |⑤-⑥-|
5
口口③口 |①---|
②口口② |②-③-|
口③口口
口①①口

口④口⑦
⑧⑥口口
口口④⑤ |④-⑤-|
⑤口⑥口 |⑥-⑦⑧|
6
口⑦④口 |①-②-|
⑦⑥③④ |③-④-|
②③⑥⑤ |--⑤-|
口②⑤① |⑥-⑦-|
7
④口口② |①-②-|
口④②口 |③-④-|
①口口③
口①③口

口口⑦口
口口口⑦
口口⑥口 |⑤---|
⑤⑥口⑤ |⑥-⑦-|
8
口口口① |----|
③②①口 |①-②-|
②③④口 |----|
口口口④ |③-④-|
9
口口①⑥ |----|
②④④口 |--①②|
口⑤口③ |③-④-|
口⑦口口 |⑤⑥⑦-|
10
口④⑦④ |①-②-|
④③⑥⑦ |③-④-|
⑤⑥③② |--⑤-|
①⑤②① |⑥-⑦-|
11
②口口④ |①-②-|
口②④口 |③-④-|
③口③①
①③①口

口口⑧口
⑤⑦口⑤
口⑧口⑧ |⑤-⑥-|
⑥口⑦⑥ |⑦-⑧-|
12
口①口口 |①---|
口口①③ |②-③-|
③口口口
②口口②

口⑤⑤口
④口口口
口⑥⑥④ |④-⑤-|
⑦口口⑦ |⑥-⑦-|
13
口口③口 |①---|
②口口② |②-③-|
口③口口
口①①口

口④口⑦
⑧⑥口口
口口④⑤ |④-⑤-|
⑤口⑦口 |⑥-⑦⑧|
14
④⑦④口 |①-②-|
⑦⑥③④ |③-④-|
②③⑥⑤ |--⑤-|
口②⑤① |⑥-⑦-|
15
④口口② |①-②-|
口④②① |③-④-|
①③口③
口①③口

口口⑧口
⑥口口⑧
⑦⑧⑦口 |⑤-⑥-|
⑤⑦口⑤ |⑦-⑧-|
16
口口口① |----|
③②①口 |①-②-|
②③④口 |----|
口口口④ |③-④-|
17
口①口⑦ |----|
⑥④④② |--①②|
口口口口 |③-④-|
③口口⑤ |⑤⑥⑦-|
18
口⑤口口 |①---|
口口口⑥ |--②-|
④①①④ |③--④|
②②③③ |--⑤⑥|
19
⑤口②⑧ |①-②③|
③⑨⑥口 |④-⑤⑥|
口⑪⑪口 |⑦-⑧⑨|
⑦①④⑩ |⑩-⑪-|
20
③④④⑤ |①---|
③②①⑤ |②---|
口口口口 |--③-|
口①②口 |④-⑤-|
21
口口口口 |①-②-|
口口口口 |③---|
③口口① |----|
③②②① |----|
22
口⑤口口 |①---|
口口口⑥ |--②-|
④①①④ |③--④|
②②③③ |--⑤⑥|
23
⑤口②口 |①-②③|
③口⑥口 |④-⑤⑥|
口口口口
口①④口

口口口⑧
⑪⑨口口
口口⑫口 |⑦-⑧⑨|
⑦口口⑩ |⑩-⑪⑫|
24
口口口口 |①---|
口②口口 |②---|
口口口口
口①②口

口④口口
③⑤③⑤
口④口口 |--③-|
口口口口 |④-⑤-|
25
口口①口 |①---|
口口口口 |②---|
②口①② |----|
口口口口 |----|
26
口口口① |①---|
②口①口 |②-③-|
③②口口
口③口口

口口口④
口口④⑤
口口⑤⑥ |--④-|
口口⑥口 |⑤-⑥-|
27
①口口③ |----|
②①③④ |①-②-|
口②④⑤ |--③-|
口口⑤口 |④-⑤-|
28
口口口口 |----|
①口口口 |①-②-|
②①口口
口②口口

口口口口
口口口口
口④口④ |--③-|
③口口③ |--④-|
29
①口①口 |--①-|
②口口③ |----|
口④口口 |--②-|
口口口口 |③-④-|
30
①口口③ |①---|
口④⑤⑥ |②-③-|
⑥⑥②口 |--④-|
③③①① |⑤-⑥-|
31
口④⑤③ |--①-|
②口口④ |②-③-|
口⑤①口 |----|
口口口口 |④-⑤-|
32
口④⑦④ |①-②-|
④③⑥⑦ |③-④-|
⑤⑥③② |--⑤-|
①⑤②① |⑥-⑦-|
33
②口口④ |①-②-|
口②④口 |③-④-|
③口③①
①③①口

口口⑧口
⑤⑦口⑤
口⑧口⑧ |⑤-⑥-|
⑥口⑦⑥ |⑦-⑧-|
34
口①口口 |①---|
口口①③ |②-③-|
③口口口
②口口②

口⑤⑤口
④口口口
口⑥⑥④ |④-⑤-|
⑦口口⑦ |⑥-⑦-|
35
口口③口 |①---|
②口口② |②-③-|
口③口口
口①①口

口④口⑦
⑧⑥口口
口口④⑤ |④-⑤-|
⑤口⑦口 |⑥-⑦⑧|
36
④⑦④口 |①-②-|
⑦⑥③④ |③-④-|
②③⑥⑤ |--⑤-|
口②⑤① |⑥-⑦-|
37
④口口② |①-②-|
口④②① |③-④-|
①③口③
口①③口

口口⑧口
⑥口口⑧
⑦⑧⑦口 |⑤-⑥-|
⑤⑦口⑤ |⑦-⑧-|
38
口口口① |----|
③②①口 |①-②-|
②③④口 |----|
口口口④ |③-④-|
39
口口①⑥ |----|
②④④口 |--①②|
口⑦口③ |③-④-|
口⑤口口 |⑤⑥⑦-|
40
口④⑦④ |①-②-|
④③⑥⑦ |③-④-|
⑤⑥③② |--⑤-|
①⑤②① |⑥-⑦-|
41
②口口④ |①-②-|
口②④口 |③-④-|
③口③①
①③①口

口口⑧口
⑤⑦口⑤
口⑧口⑧ |⑤-⑥-|
⑥口⑦⑥ |⑦-⑧-|
42
口①口口 |①---|
口口①③ |②-③-|
③口口口
②口口②

口⑤⑤口
④口口口
口⑥⑥④ |④-⑤-|
⑦口口⑦ |⑥-⑦-|
43
口口③口 |①---|
②口口② |②-③-|
口③口口
口①①口

口④口⑦
⑧⑥口口
口口④⑤ |④-⑤-|
⑤口⑦口 |⑥-⑦⑧|
44
④⑦④口 |①-②-|
⑦⑥③④ |③-④-|
②③⑥⑤ |--⑤-|
口②⑤① |⑥-⑦-|
45
④口口② |①-②-|
口④②① |③-④-|
①③口③
口①③口

口口⑧口
⑥口口⑧
⑦⑧⑦口 |⑤-⑥-|
⑤⑦口⑤ |⑦-⑧-|
46
口口口① |----|
③②①口 |①-②-|
②③④口 |----|
口口口④ |③-④-|
47
⑦①口⑥ |----|
④口④口 |--①②|
口口口② |③-④-|
③⑤口口 |⑤⑥⑦-|
48
口口①口 |①---|
②①②① |--②-|
口②①口 |----|
口②口口 |----|


不确定度: 0

最終更新:2013年03月23日 17:18