Supernova
9mm Parabellum Bullet

EXTREME

Level: 8
BPM: 193
Notes: 682

1
口口口口 |----|
口口口口 |----|
口口口口 |----|
口口口口 |----|
2
①口口① |①---|
①口口① |②---|
⑤②②⑥ |③-④-|
③口口④ |⑤-⑥-|
3
③⑤⑥④ |①-②-|
①⑦⑧② |③-④-|
口口口口 |⑤-⑥-|
口口口口 |⑦-⑧-|
4
⑦口口⑧ |①-②-|
⑤口口⑥ |③-④-|
③口口④ |⑤-⑥-|
①口口② |⑦-⑧-|
5
⑥①②⑥ |①-②-|
口③④口 |③-④-|
⑤口口⑤ |⑤---|
口口口口 |⑥---|
6
口④④口 |①---|
③口口③ |②---|
口②②口 |③---|
①口口① |④---|
7
口口口口 |①---|
③②②③ |②---|
口⑥⑦口 |③---|
①④⑤① |④⑤⑥⑦|
8
①口口① |①---|
口口口口 |----|
口口口口 |----|
口口口口 |----|
9
口口⑦口 |--①-|
口③⑥口 |②-③-|
②口口⑤ |④-⑤-|
口①④口 |⑥-⑦-|
10
④口口口 |--①-|
③口⑥口 |②-③-|
②⑤口口 |④---|
①②③④ |⑤-⑥-|
11
口③②① |--①-|
④⑤口口 |②-③-|
口⑥⑦口 |④-⑤-|
口口口口 |⑥-⑦-|
12
口口口④ |--①-|
口⑥口③ |②-③-|
口口⑤② |④---|
④③②① |⑤-⑥-|
13
①②③口 |--①-|
口口⑤④ |②-③-|
口⑦⑥口 |④-⑤-|
口口口口 |⑥-⑦-|
14
①②③④ |--①-|
②⑤口口 |②-③-|
③口⑥口 |④---|
④口口口 |⑤-⑥-|
15
口口口口 |--①-|
口⑥⑦口 |②-③-|
④⑤口口 |④-⑤-|
口③②① |⑥-⑦-|
16
④③②① |--①-|
口口⑤② |②-③-|
口⑥口③ |④---|
口口口④ |⑤-⑥-|
17
口⑦口口 |--①-|
口口⑥口 |②-③-|
口口⑤④ |④-⑤-|
①②③口 |⑥-⑦-|
18
④口口口 |--①-|
③口⑥口 |②-③-|
②⑤口口 |④---|
①②③④ |⑤-⑥-|
19
口③②① |--①-|
④⑤口口 |②-③-|
口⑥⑦口 |④-⑤-|
口口口口 |⑥-⑦-|
20
口口口④ |--①-|
口⑥口③ |②-③-|
口口⑤② |④---|
④③②① |⑤-⑥-|
21
①②③口 |--①-|
口口⑤④ |②-③-|
口⑦⑥口 |④-⑤-|
口口口口 |⑥-⑦-|
22
①②③④ |--①-|
②⑤口口 |②-③-|
③口⑥口 |④---|
④口口口 |⑤-⑥-|
23
口口口口 |--①-|
口⑥⑦口 |②-③-|
④⑤口口 |④-⑤-|
口③②① |⑥-⑦-|
24
④③②① |--①-|
口口⑤② |②-③-|
口⑥口③ |④---|
口口口④ |⑤-⑥-|
25
⑥⑤⑤⑥ |--①-|
②⑥⑥② |②-③-|
④口口④ |④-⑤-|
③①①③ |⑥---|
26
⑤④④⑤ |①---|
口口口口 |②---|
口①①口 |③---|
②③③② |④-⑤-|
27
口④⑤口 |--①-|
口①①口 |②---|
②口口② |③---|
口③③口 |④-⑤-|
28
①⑤⑤④ |①-②-|
③①④③ |③---|
③④②③ |④---|
④⑥⑥② |⑤-⑥-|
29
①④口③ |--①-|
①口口③ |②---|
③口口② |③---|
③口⑤② |④-⑤-|
30
口口③口 |①---|
④③②⑤ |②---|
⑤②①④ |③---|
口①口口 |④-⑤-|
31
②②口① |--①-|
口口口口 |②---|
口口口口 |③---|
④④口③ |④---|
32
口③口口 |①---|
⑤②③④ |②---|
④①②⑤ |③---|
口口①口 |④-⑤-|
33
④⑤⑥⑦ |--①-|
口口口口 |②-③-|
口口口口 |④-⑤-|
口①②③ |⑥-⑦-|
34
⑤④④⑤ |①---|
口口口口 |②---|
口①①口 |③---|
②③③② |④-⑤-|
35
口④⑤口 |--①-|
口①①口 |②---|
②口口② |③---|
口③③口 |④-⑤-|
36
①⑤⑤④ |①-②-|
③①④③ |③---|
③④②③ |④---|
④⑥⑥② |⑤-⑥-|
37
①④口③ |--①-|
①口口③ |②---|
③口口② |③---|
③口⑤② |④-⑤-|
38
口口③口 |①---|
④③②⑤ |②---|
⑤②①④ |③---|
口①口口 |④-⑤-|
39
②②口① |--①-|
⑤口口口 |②---|
口口口⑤ |③---|
④④口③ |④-⑤-|
40
口③口口 |①---|
⑤②③④ |②---|
④①②⑤ |③---|
口口①口 |④-⑤-|
41
④⑤⑥⑦ |--①-|
口口口口 |②-③-|
口口口口 |④-⑤-|
口①②③ |⑥-⑦-|
42
⑤口口口 |①-②-|
④口⑦① |③-④-|
③⑥口① |⑤---|
②③④⑤ |⑥-⑦-|
43
口③②① |--①-|
④⑤口口 |②-③-|
口⑥⑦口 |④-⑤-|
口口口口 |⑥-⑦-|
44
口口口④ |--①-|
口⑥口③ |②-③-|
口口⑤② |④---|
④③②① |⑤-⑥-|
45
①②③口 |--①-|
口口⑤④ |②-③-|
口⑦⑥口 |④-⑤-|
口口口口 |⑥-⑦-|
46
①②③④ |--①-|
②⑤口口 |②-③-|
③口⑥口 |④---|
④口口口 |⑤-⑥-|
47
口口口口 |--①-|
口⑥⑦口 |②-③-|
④⑤口口 |④-⑤-|
口③②① |⑥-⑦-|
48
④③②① |--①-|
口口⑤② |②-③-|
口⑥口③ |④---|
口口口④ |⑤-⑥-|
49
口口口口 |--①-|
口⑥⑥口 |②-③-|
口口⑤④ |④-⑤-|
①②③口 |⑥---|
50
①口口① |①---|
口口口口 |----|
口②②口 |②---|
口口口口 |----|
51
口口口口 |①---|
口①①口 |----|
口②②口 |②---|
口口口口 |----|
52
②②②② |①---|
③口口③ |②---|
口④④口 |③-④-|
①⑤⑤① |⑤---|
53
②②②② |①---|
③口口③ |②---|
口④④口 |③-④-|
①⑤⑤① |⑤---|
54
口口口口 |①---|
②①①② |----|
口口口口 |②---|
口口口口 |----|
55
②口口② |①---|
口口口口 |----|
口①①口 |②---|
①口口① |----|
56
口①①口 |①---|
②口口② |②---|
口③③口 |③---|
④口口④ |④---|
57
③②②③ |①---|
③③③③ |②---|
①口口① |③---|
④⑤口口 |④-⑤-|
58
口⑥⑤口 |①---|
口口⑥⑤ |②-③-|
口④③② |④---|
口口①口 |⑤-⑥-|
59
①口口口 |①---|
口①口口 |②-③-|
②③④口 |④---|
口②③④ |----|
60
②①①② |①---|
⑤③③⑤ |②-③-|
④口口④ |④---|
口口口口 |⑤---|
61
口口口口 |①---|
口③③口 |②-③-|
口②②口
口①①口

口④④口
口口口口
口口口口 |④---|
⑤⑥口口 |⑤-⑥-|
62
口⑥⑤口 |①---|
口口⑥⑤ |②-③-|
口④③② |④---|
口口①口 |⑤-⑥-|
63
①口口口 |①---|
口①口口 |②-③-|
②③④口 |④---|
口②③④ |----|
64
②①①② |①---|
⑤③③⑤ |②-③-|
④口口④ |④---|
口口口口 |⑤---|
65
口④④口 |①---|
口③③口 |②-③-|
口②②口 |④---|
①①①① |----|
66
④⑤④⑤ |①---|
口③口③ |②-③-|
②口②口 |④---|
①①①① |⑤---|
67
④口④口 |①---|
口③口③ |②-③-|
②口②口 |④---|
①①①① |----|
68
⑤④④⑤ |①---|
口③③口 |②-③-|
口②②口 |④---|
①①①① |⑤---|
69
口③③口 |①---|
口②②口 |②---|
①口口① |③---|
口口口口 |----|
70
⑤④⑤④ |①---|
③口③口 |②-③-|
口②口② |④---|
①①①① |⑤---|
71
口④口④ |①---|
③口③口 |②-③-|
口②口② |④---|
①①①① |----|
72
⑤④④⑤ |①---|
口③③口 |②-③-|
口②②口 |④---|
①①①① |⑤---|
73
口④④口 |①---|
口③③口 |②-③-|
口②②口 |④---|
①口口① |----|
74
口⑥口口 |①-②-|
⑤口口① |③---|
④口口② |④---|
口口口③ |⑤-⑥-|
75
③口⑤口 |--①-|
口口口④ |②---|
口口口① |③---|
口口②口 |④-⑤-|
76
⑦口口口 |①-②-|
①⑥口口 |③---|
②口⑤口 |④-⑤-|
③口口④ |⑥-⑦-|
77
口口口④ |--①-|
③口⑤口 |②-③-|
②⑥口口 |④-⑤-|
⑦①口口 |⑥-⑦-|
78
口⑥口口 |①-②-|
⑤口口① |③---|
④口口② |④---|
口口口③ |⑤-⑥-|
79
③口⑤口 |--①-|
口口口④ |②---|
口口口① |③---|
口口②口 |④-⑤-|
80
口口口⑥ |①-②-|
①口⑤口 |③---|
②口口④ |④---|
③口口口 |⑤-⑥-|
81
口③口口 |--①-|
②口口④ |②-③-|
①口口口 |④---|
⑤口口⑤ |⑤---|


不确定度: 0

最終更新:2013年01月24日 03:45