サマータイム
DigiCut

ADVANCED

Level: 6
BPM: 123
Notes: 445

1
口口口口 |----|
口口口口 |----|
口口口口 |----|
口口口口 |----|
2
①口口② |①---|
口④③口 |②---|
口口口口 |③---|
口口口口 |④---|
3
口口口口 |①---|
口口口口 |②---|
①口口② |③---|
口④③口 |④---|
4
①口口② |①---|
口④③口 |②---|
口口口口 |③---|
口口口口 |④---|
5
口口口口 |①---|
口口口口 |②---|
①口口② |③---|
口④③口 |④---|
6
①①口② |①---|
④口③③ |②---|
口口口口 |③---|
口口口口 |④---|
7
口口口口 |①---|
口口口口 |②---|
①①口② |③---|
④口③③ |④---|
8
①①口② |①---|
④口③③ |②---|
口口口口 |③---|
口口口口 |④---|
9
口口口口 |①---|
口口口口 |②---|
①①口② |③---|
④口③③ |④---|
10
①口口② |①---|
①口口口 |②---|
口口口口
口口口口

口口口口
④口口③
口口口③ |③---|
口口口口 |④---|
11
口口口口 |①---|
口口口口 |②---|
①口③② |③---|
①④③口 |④---|
12
①口口② |①---|
①口口口 |②---|
口口口口
口口口口

口口口口
④口口③
口口口③ |③---|
口口口口 |④---|
13
口口口口 |①---|
口口口口 |②---|
①口口②
①口口口

口口口口
口口口口
④口③口 |③---|
④口③口 |④---|
14
①①①① |①---|
口口口口 |----|
口口口口 |----|
②口口② |②---|
15
⑦⑩⑩⑦ |①②③④|
口⑤⑥口 |⑤⑥⑦-|
⑧③④⑨ |⑧⑨-⑩|
口①②口 |----|
16
⑨口口⑨ |①-②-|
②⑦⑧口 |③④⑤⑥|
口⑤⑥口 |⑦⑧-⑨|
①③④⑩ |--⑩-|
17
口⑧⑨口 |①-②③|
口⑥⑦① |④⑤⑥⑦|
口④⑤口 |⑧⑨-⑩|
⑩②③⑩ |----|
18
②口口口 |①-②③|
口⑦口口 |④⑤⑥⑦|
①⑤口⑥
口③口④

⑩口口口
口口口⑧
⑨口口口 |⑧⑨-⑩|
口口口口 |----|
19
口口口① |①-②③|
⑦口口口 |④⑤⑥⑦|
⑤口⑥②
③口④口

口口口⑩
口口⑧口
口口口口 |⑧⑨-⑩|
口⑨口口 |----|
20
口①②口 |①②③④|
口③④口 |⑤⑥⑦⑧|
口⑤⑥口
口⑦⑧口

口口口口
⑪⑮口⑫
口⑬⑭口 |⑨⑩⑪-|
⑨口口⑩ |⑫⑬⑭⑮|
21
④②③⑤ |①②③④|
⑥口①⑦ |⑤⑥⑦⑧|
⑧口口口
口口口口

口口口口
口口⑫口
口口口⑨ |⑨⑩⑪-|
⑩口⑪口 |⑫---|
22
①口③口 |①-②-|
⑦口⑨口 |③-④⑤|
⑥②口④ |⑥⑦⑧-|
⑤⑩⑧口 |⑨--⑩|
23
口②③口 |①-②③|
⑧④⑤⑨ |④⑤⑥-|
口①口⑩ |⑦-⑧-|
⑥口⑦口 |⑨--⑩|
24
口口口口 |①②③④|
④③口口 |-⑤⑥⑦|
口②①口
口⑦⑥⑤

口⑩口口
口口⑧⑨
口口口口 |-⑧⑨-|
⑪口口⑫ |⑩-⑪⑫|
25
⑤⑥口⑦ |①②③④|
③⑪⑪④ |⑤⑥⑦-|
①⑨⑧② |⑧⑨⑩-|
⑩口口⑩ |⑪---|
26
①口口③ |①-②-|
⑤口口⑧ |③-④-|
②口口④ |⑤-⑥⑦|
⑥⑦⑩⑨ |⑧-⑨⑩|
27
①口口④ |①-②③|
口口口口 |④-⑤-|
②③口口
⑤口口口

口口⑦口
口口⑧口
⑨口口口 |⑥-⑦⑧|
口口口⑥ |⑨---|
28
①②⑭⑬ |①②③④|
③④⑤⑥ |⑤⑥⑦⑧|
⑦⑧口⑨ |⑨-⑩⑪|
⑩⑪口⑫ |⑫-⑬⑭|
29
①口口口 |①-②③|
④口②③ |-④-⑤|
口口⑤口
口口口口

口口口口
⑩口口口
口口口⑥ |⑥-⑦⑧|
⑦⑧⑨口 |⑨-⑩-|
30
①口口口 |①---|
口③口口 |--②-|
⑤②口口 |③---|
④口口口 |④-⑤-|
31
口⑤⑤⑥ |①-②③|
①④④口 |--④-|
口③口口 |⑤---|
口②口口 |--⑥-|
32
口口④口 |①-②③|
口口口口 |--④-|
口口③①
口口②口

口⑧口⑤
口口口口
口口口⑦ |⑤-⑥⑦|
口口口⑥ |--⑧-|
33
口⑤⑤口 |①-②③|
口④④口 |--④-|
口①③口 |⑤---|
口口②口 |----|
34
①口口口 |①---|
口③口口 |--②-|
⑤②口口 |③---|
④口口口 |④-⑤-|
35
口④④⑥ |①-②③|
①⑤⑤口 |--④-|
口③口口 |⑤---|
口②口口 |--⑥-|
36
口口④口 |①-②③|
口口口口 |--④-|
口口③①
口口②口

口口口⑤
口口⑧口
口口口⑦ |⑤-⑥⑦|
口口口⑥ |--⑧-|
37
②②②② |--①-|
③③③③ |-②--|
口口口口 |③---|
口①①口 |----|
38
口⑤⑤口 |--①②|
口口口口 |③④-⑤|
③口口④
①口口②

口口口口
口口口口
口⑥⑥口 |--⑥-|
⑧⑦⑦⑧ |⑦-⑧-|
39
口④⑤口 |①-②-|
①口口① |③-④⑤|
②③③②
口口口口

口口口口
⑥口口⑥
口口口口 |--⑥-|
口口口口 |----|
40
⑤口口口 |--①②|
口口口口 |③④-⑤|
③口口④
①口口②

口口口⑥
口口口口
口⑦⑦口 |⑥-⑦-|
⑨⑧⑧⑨ |⑧-⑨-|
41
口④⑤口 |①-②-|
①口口① |③-④⑤|
②③③②
口口口口

口口口口
⑥口口⑥
⑦口口⑦ |--⑥-|
⑧口口⑧ |⑦-⑧-|
42
③③③③ |①---|
口②②口 |--②-|
口口口口 |③---|
口①①口 |----|
43
④④④④ |①--②|
口口口口 |--③-|
①口口② |④---|
⑤③③口 |⑤---|
44
口口口口 |①---|
口口口③ |--②-|
①口口② |----|
口口口口 |③---|
45
②②②② |①---|
口口口口 |--②-|
口①①口 |----|
口口口口 |----|
46
口⑤⑤口 |--①②|
口口口口 |③④-⑤|
③口口④
①口口②

口口口口
口口口口
口⑥⑥口 |--⑥-|
⑧⑦⑦⑧ |⑦-⑧-|
47
口④⑤口 |①-②-|
①口口① |③-④⑤|
②③③②
口口口口

口口口口
⑥口口⑥
口口口口 |--⑥-|
口口口口 |----|
48
口⑤⑤口 |--①②|
口口口口 |③④-⑤|
③口口④
①口口②

口口口口
口口口口
口⑥⑥口 |--⑥-|
⑧⑦⑦⑧ |⑦-⑧-|
49
口④⑤口 |①-②-|
①口口① |③-④⑤|
②③③②
口口口口

口口口口
⑥口口⑥
⑦口口⑦ |--⑥-|
⑧口口⑧ |⑦-⑧-|
50
③③③③ |①---|
口②②口 |--②-|
口口口口 |③---|
口①①口 |----|
51
④④④④ |①--②|
口口口口 |--③-|
①口口② |④---|
⑤③③口 |⑤---|
52
②口口② |①---|
口④④口 |--②-|
口③③口 |----|
口口口① |③-④-|


不确定度: 0

最終更新:2013年03月23日 13:46