サマータイム
DigiCut

EXTREME

Level: 8
BPM: 123
Notes: 625

1
口口口口 |----|
口口口口 |----|
口口口口 |----|
口口口口 |----|
2
口口口口 |①-②-|
②口口口 |③④-⑤|
⑤③口口
①④口口

⑥口口口
口⑦⑧口
口口口口 |-⑥-⑦|
⑨口口口 |⑧-⑨-|
3
口口口口 |①-②-|
口口口② |③④-⑤|
口口③⑤
口口④①

口口口⑥
口⑧⑦口
口口口口 |-⑥-⑦|
口口口⑨ |⑧-⑨-|
4
口口口口 |①-②-|
②口口口 |③④-⑤|
⑤③口口
①④口口

⑥口口口
口⑦⑧口
口口口口 |-⑥-⑦|
⑨口口口 |⑧-⑨-|
5
口口口口 |①-②-|
口口口② |③④-⑤|
口口③⑤
口口④①

口口口⑥
口⑧⑦口
口口口口 |-⑥-⑦|
口口口⑨ |⑧-⑨-|
6
口口口口 |①-②-|
②口口口 |③④-⑤|
⑤③口口
①④①口

⑥口口口
口⑦⑧口
口口口口 |-⑥-⑦|
⑨口口口 |⑧-⑨-|
7
口口口口 |①-②-|
口口口② |③④-⑤|
口口③⑤
口①④①

口口口⑥
口⑧⑦口
口口口口 |-⑥-⑦|
口口口⑨ |⑧-⑨-|
8
口口口口 |①-②-|
②口口口 |③④-⑤|
⑤③口口
①④①口

⑥口口口
口⑦⑧口
口口口口 |-⑥-⑦|
⑨口口口 |⑧-⑨-|
9
口口口口 |①-②-|
口口口② |③④-⑤|
口口③⑤
口①④①

口口口⑥
口⑧⑦口
口口口口 |-⑥-⑦|
口口口⑨ |⑧-⑨-|
10
口口口口 |①-②-|
②口口口 |③④-⑤|
⑤③①⑤
①④①口

⑥口口口
口⑦⑧口
口口口口 |-⑥-⑦|
⑨口口口 |⑧-⑨-|
11
口口口口 |①-②-|
口口口② |③④-⑤|
⑤①③⑤
口①④①

口口口⑥
口⑧⑦口
口口口口 |-⑥-⑦|
口口口⑨ |⑧-⑨-|
12
口口口口 |①-②-|
②口口口 |③④-⑤|
⑤③①⑤
①④①口

⑥口口口
口⑦⑧口
口口口口 |-⑥-⑦|
⑨口口口 |⑧-⑨-|
13
口口口⑥ |①-②-|
④③⑧② |③④-⑤|
⑦①⑧⑤ |-⑥-⑦|
口①口① |⑧---|
14
①②③④ |①②③④|
①口口⑤ |⑤⑥⑦⑧|
口口口⑥
口口⑧⑦

口口口口
⑫⑭⑬口
⑪口⑬口 |⑨⑩⑪⑫|
⑩⑨口口 |⑬--⑭|
15
④口口⑤ |①②③④|
口口口③ |⑤⑥⑦-|
口②口①
⑥口口⑦

口⑧⑧口
⑩口口⑩
⑩口口⑩ |⑧⑨-⑩|
口⑨⑨口 |----|
16
①口口② |①-②-|
口口口口 |③④⑤⑥|
口口口口
③④⑤⑥

⑨口⑪⑨
⑩口口口
口⑦⑧口 |⑦⑧-⑨|
口口口口 |--⑩⑪|
17
口②口口 |①-②③|
⑦③口⑥ |④⑤⑥⑦|
口口口口
⑤①口④

⑩口口⑩
口口口口
口口口口 |⑧⑨-⑩|
口⑨⑧口 |----|
18
⑩⑦⑧⑩ |①-②③|
②⑤⑥② |④⑤⑥⑦|
⑨③④⑨ |⑧⑨-⑩|
①口口① |----|
19
⑧⑤⑥⑧ |①-②③|
③⑩⑩④ |④⑤⑥⑦|
⑨⑩⑩⑨ |⑧⑨-⑩|
⑦①②⑦ |----|
20
⑪⑮⑭⑬ |①②③④|
⑦⑧⑨⑩ |⑤⑥⑦⑧|
⑫⑥⑤④ |⑨⑩⑪-|
①②③口 |⑫⑬⑭⑮|
21
口口口口 |①②③④|
①②③④ |⑤⑥⑦⑧|
口⑤⑥⑦
⑧口口口

口口⑪口
口口⑫口
口口口口 |⑨⑩⑪-|
口⑨⑩口 |⑫---|
22
①⑦⑨③ |①-②-|
口口⑥口 |③-④⑤|
口⑩口口 |⑥⑦⑧-|
②⑤⑧④ |⑨--⑩|
23
口②口③ |①-②③|
④①⑤口 |④⑤⑥-|
①口①口
⑥①⑤口

口口⑦口
口口口口
口⑩口口 |⑦-⑧-|
口⑧口⑨ |⑨--⑩|
24
⑤②口⑥ |①②-③|
③口①③ |-④⑤⑥|
口口口口
口口④口

口⑧口口
口口口口
⑪⑨⑨口 |-⑦⑧-|
⑦⑩口口 |⑨-⑩⑪|
25
⑦口口⑦ |①②③④|
②口口③ |⑤⑥⑦-|
口⑥口①
④口口⑤

口⑪⑪口
⑪⑧⑨⑪
⑩口口⑩ |⑧⑨⑩-|
口⑩⑩口 |⑪---|
26
①口口① |①-②-|
口③③口 |③-④-|
口④④口
②口口②

⑨⑤⑤⑨
口口口口
⑦⑩⑩⑧ |⑤-⑥⑦|
口⑥⑥口 |⑧-⑨⑩|
27
口④④口 |①-②③|
①口口① |④-⑤-|
口口口口
②⑤⑤③

口口口口
口口⑧⑦
⑥⑨⑨⑥ |⑥-⑦⑧|
口口口口 |⑨---|
28
①⑫⑫⑧ |①②③④|
③⑨⑨⑤ |⑤⑥⑦⑧|
⑥⑬⑭④ |⑨-⑩⑪|
⑦⑩⑪② |⑫-⑬⑭|
29
口口口② |①-②③|
口③口口 |-④-⑤|
⑤口口口
①④口口

口⑦⑦口
⑧口口⑨
口口口⑥ |⑥-⑦⑧|
⑩⑩口口 |⑨-⑩-|
30
②口口口 |①---|
口口口口 |--②-|
①①口口
口口口口

口口口口
③口口口
口④口口 |③---|
口⑤口口 |④-⑤-|
31
⑤⑤口⑥ |①-②③|
口①①⑥ |--④-|
③④④口 |⑤---|
②口口口 |--⑥-|
32
口④④口 |①-②③|
口①口口 |--④-|
口①③口
口口②口

口口口⑤
口⑧⑧口
口口口⑦ |⑤-⑥⑦|
口口口⑥ |--⑧-|
33
口④①④ |①-②③|
口口口口 |--④-|
口⑤③⑤ |⑤---|
口②②口 |----|
34
②口口口 |①---|
口口口口 |--②-|
口口口口
①①口口

口口口口
③口口口
口④口口 |③---|
口⑤口口 |④-⑤-|
35
④④口⑥ |①-②③|
口①①⑥ |--④-|
③口口口 |⑤---|
②⑤⑤口 |--⑥-|
36
口④④口 |①-②③|
口①口口 |--④-|
口①③口
口口②口

口口口⑤
口⑧⑧口
口⑥口⑦ |⑤-⑥⑦|
口口口口 |--⑧-|
37
②②②② |--①-|
③口口③ |-②--|
③口口③ |③---|
①①①① |----|
38
④⑤⑤④ |--①②|
③口口③ |③④-⑤|
②口口②
①口口①

口口口口
口口口口
⑧⑥⑥⑧ |--⑥-|
口⑦⑦口 |⑦-⑧-|
39
②④④② |①-②-|
①③③① |③-④⑤|
口⑤⑤口 |--⑥-|
口⑥⑥口 |----|
40
口④④口 |--①②|
口③③口 |③④-⑤|
②口口②
①⑤⑤①

口口口口
⑥口口⑥
⑨⑦⑦⑨ |⑥-⑦-|
⑧口口⑧ |⑧-⑨-|
41
①④⑤① |①-②-|
口②②口 |③-④⑤|
口口口口
口③③口

⑥口口⑥
⑦口口⑦
⑧口口⑧ |--⑥-|
口口口口 |⑦-⑧-|
42
③③③③ |①---|
口②②口 |--②-|
口口口口 |③---|
①①①① |----|
43
口口口口 |①--②|
①③③① |--③-|
①口口①
②②②②

④④④④
口口口口
口口口⑤ |④---|
⑤口口口 |⑤---|
44
口口口口 |①---|
口③②口 |--②-|
①②③口 |----|
口口口① |③---|
45
①①①① |①---|
②口②口 |--②-|
口②口口 |----|
口②口口 |----|
46
④⑤⑤④ |--①②|
③口口③ |③④-⑤|
②口口②
①口口①

口口口口
口口口口
⑧⑥⑥⑧ |--⑥-|
口⑦⑦口 |⑦-⑧-|
47
②④④② |①-②-|
①③③① |③-④⑤|
口⑤⑤口 |--⑥-|
口⑥⑥口 |----|
48
口④④口 |--①②|
口③③口 |③④-⑤|
②口口②
①⑤⑤①

口口口口
⑥口口⑥
⑨⑦⑦⑨ |⑥-⑦-|
⑧口口⑧ |⑧-⑨-|
49
①④⑤① |①-②-|
口②②口 |③-④⑤|
口口口口
口③③口

⑥口口⑥
⑦口口⑦
⑧口口⑧ |--⑥-|
口口口口 |⑦-⑧-|
50
③③③③ |①---|
口②②口 |--②-|
口口口口 |③---|
①①①① |----|
51
口口口口 |①--②|
①③③① |--③-|
①口口①
②②②②

④④④④
口口口口
口⑤⑤口 |④---|
⑤口口⑤ |⑤---|
52
口②②口 |①---|
口①①口 |--②-|
①②②①
口口口口

口口口口
④④④④
③口口③ |----|
口口口口 |③-④-|


不确定度: 0

最終更新:2013年03月23日 13:46