スマイル一番 イイ♀
アンティック-珈琲店-

EXTREME

Level: 8
BPM: 153
Notes: 514

1
口口口口 |----|
口口口口 |----|
口口口口 |----|
口口口口 |----|
2
口②口② |①---|
口③⑤口 |②---|
口⑤①口 |③--④|
④②④② |--⑤-|
3
口口口口 |--①-|
①口④② |②---|
②⑤口① |③--④|
口③③口 |--⑤-|
4
口②口② |①---|
口③⑤口 |②---|
口⑤①口 |③--④|
④②④② |--⑤-|
5
口口口口 |--①-|
①⑤口② |②---|
②口④① |③--④|
口③③口 |--⑤-|
6
②口②口 |①---|
口⑤③口 |②---|
口①⑤口 |③--④|
②④②④ |--⑤-|
7
口③③口 |--①-|
②口⑤① |②---|
①④口② |③--④|
口口口口 |--⑤-|
8
口口口口 |①---|
②口口口 |②---|
口口口②
①①①①

口口口口
口④口③
③口④口 |③--④|
口口⑤⑤ |--⑤-|
9
①②⑥⑤ |①-②-|
口口⑧⑦ |③-④-|
③④⑩⑨ |⑤⑥⑦⑧|
口口⑫⑪ |⑨⑩⑪⑫|
10
口④口口 |①-②-|
③口口口 |③-④-|
口②口口
①①口口

口口⑥口
口⑤口⑤
口口⑥口 |⑤--⑥|
口⑦口⑦ |--⑦-|
11
口②④④ |①--②|
口口口口 |--③-|
①口③③ |④---|
口口口口 |----|
12
口⑥④口 |①-②-|
⑤口⑤③ |③-④-|
口⑥②口 |⑤--⑥|
⑦①⑦① |--⑦-|
13
④④②口 |①--②|
口⑤口⑤ |--③-|
③③⑥① |④---|
口口口口 |--⑤⑥|
14
口口口口 |①---|
②口②口 |--②③|
口③口口 |④---|
⑤①④⑤ |--⑤-|
15
②口口② |①---|
⑤④③⑤ |②-③-|
①③④① |④---|
口口口口 |⑤---|
16
①口①口 |①-②-|
口口口口 |③-④-|
口②口②
③④③④

⑦⑥⑦⑥
⑤⑧⑤口
口口口口 |⑤-⑥-|
口口口口 |⑦-⑧-|
17
⑤⑤⑤⑤ |①-②-|
④口口③ |③-④-|
①③④② |⑤---|
口②①口 |----|
18
④②④② |①---|
口⑤①口 |②---|
口③⑤口 |③--④|
口②口② |--⑤-|
19
口口口口 |--①-|
①口④② |②---|
②⑤口① |③--④|
口③③口 |--⑤-|
20
口②口② |①---|
口③⑤口 |②---|
口⑤①口 |③--④|
④②④② |--⑤-|
21
口口口口 |--①-|
①⑦⑥④ |②-③-|
③口⑤② |④-⑤-|
口口口口 |⑥-⑦-|
22
②口②口 |①---|
口⑤③口 |②---|
口①⑤口 |③--④|
②④②④ |--⑤-|
23
口③③口 |--①-|
②口⑤① |②---|
①④口② |③--④|
口口口口 |--⑤-|
24
②④②④ |①---|
口①⑤口 |②---|
口⑤③口 |③--④|
②口②口 |--⑤-|
25
③③口口 |①--②|
①①口④ |--③-|
⑤口②② |④-⑤-|
口⑦口⑥ |⑥-⑦-|
26
①口⑧⑧ |--①②|
口②口⑦ |③-④-|
口口③⑥ |⑤-⑥-|
④口口⑤ |⑦-⑧-|
27
口口口口 |--①-|
口口③口 |②-③-|
口②口口
口口①口

口④口口
⑤口口⑤
⑥口口⑥ |④-⑤-|
口⑦⑦口 |⑥-⑦-|
28
⑦⑦口① |--①-|
口口②口 |②-③-|
⑥③口口 |④-⑤⑥|
⑤口口④ |--⑦-|
29
口口口口 |①-②-|
③③①① |③-④-|
⑧②④⑥ |⑤-⑥-|
⑦⑦⑤⑤ |⑦-⑧-|
30
①口⑧⑧ |--①②|
口②口⑦ |③-④-|
口④③⑤ |⑤-⑥⑦|
口口口⑥ |--⑧-|
31
口口口口 |--①②|
口口④口 |③-④-|
口③②口
口①口口

口⑤口口
⑥口口⑥
⑦口口⑦ |⑤-⑥-|
口⑧⑧口 |⑦-⑧-|
32
⑦⑦⑧① |--①-|
口口②口 |②-③-|
⑥③口口 |④-⑤⑥|
⑤口口④ |--⑦⑧|
33
口口口口 |①-②-|
③③①① |③-④-|
口②④口 |⑤---|
口口⑤⑤ |----|
34
口①口① |①---|
口口口口 |②-③-|
口口②口
口③口③

口⑥口口
⑤口口口
口④口口 |--④-|
口口口口 |⑤-⑥-|
35
口口①① |①---|
口口口② |②---|
口口②口 |③---|
④口③③ |④---|
36
①①口② |①---|
口口口口 |--②-|
口③③口 |----|
口口口口 |--③-|
37
口口口口 |①-②-|
①口口② |----|
口口口口 |----|
②口口① |----|
38
口口口口 |--①-|
⑦③②⑦ |②-③-|
⑥①④⑥ |④-⑤-|
⑤口口⑤ |⑥-⑦-|
39
①①①① |①---|
口②②口 |②---|
③③③③ |③---|
④口④口 |④---|
40
口口口口 |①---|
口口口口 |--②-|
③②③② |③---|
口①口① |----|
41
口①②口 |①--②|
①①②口 |--③-|
口④③③ |④---|
口④③口 |----|
42
口④⑥口 |①-②-|
③⑤口⑤ |③-④-|
口口⑥口 |⑤--⑥|
①⑦②⑦ |--⑦-|
43
口②③④ |①--②|
口口口口 |--③-|
①口④③ |④---|
口口口口 |----|
44
口口④口 |①-②-|
口口口③ |③-④-|
口口口口
口①②①

口⑥口口
⑤口⑤口
口⑥口口 |⑤--⑥|
⑦口⑦口 |--⑦-|
45
③④②口 |①--②|
口⑤口⑤ |--③-|
④③⑥① |④---|
口口口口 |--⑤⑥|
46
口口口口 |①---|
②口②口 |--②③|
⑥③口口 |④---|
口①④⑤ |--⑤⑥|
47
②口口② |①---|
口口③① |②-③-|
口③口口
口口口口

口⑥⑤口
⑤④口⑥
口口④口 |④-⑤-|
⑦口口⑦ |⑥-⑦-|
48
③口口③ |①---|
口口口口 |--②-|
②口口② |③---|
口①①口 |----|
49
口①口口 |①-②-|
口口③② |③-④-|
④口⑤口 |⑤-⑥-|
口⑦⑧⑥ |⑦-⑧-|
50
口④⑥口 |①-②-|
③⑤口⑤ |③-④-|
口②⑥口 |⑤--⑥|
①⑦口⑦ |--⑦-|
51
口②③④ |①--②|
口口口口 |--③-|
①口④③ |④---|
口口口口 |----|
52
口口④口 |①-②-|
口口口③ |③-④-|
口口口口
口①②①

口⑥口口
⑤口⑤口
口⑥口口 |⑤--⑥|
⑦口⑦口 |--⑦-|
53
③④②口 |①--②|
口⑤口⑤ |--③-|
④③⑥① |④---|
口口口口 |--⑤⑥|
54
口口口口 |①---|
②口②口 |--②③|
口③口口 |④---|
⑤①④⑤ |--⑤-|
55
②口口② |①---|
⑤④③⑤ |②-③-|
①③④① |④---|
口口口口 |⑤---|
56
①口①口 |①-②-|
口口口口 |③-④-|
口②口②
③④③④

⑦⑥⑦⑥
⑤口⑤口
口口口口 |⑤-⑥-|
口口口口 |⑦---|
57
口口⑤口 |①-②-|
口④口④ |③-④-|
口①③② |⑤---|
口口③口 |----|


不确定度: 0

最終更新:2013年03月23日 16:10