SHINE×SHINE×SHINE×SHINE
エイプリルズ

ADVANCED

Level: 6
BPM: 138
Notes: 327

1
口口口口 |----|
口口口口 |----|
口口口口 |----|
口口口口 |----|
2
①口③口 |①--②|
口②口③ |--③-|
③口②口 |----|
口③口① |----|
3
口⑤口口 |①-②-|
口①②⑥ |③-④-|
⑧④③口 |⑤-⑥-|
口口⑦口 |⑦-⑧-|
4
口口⑤口 |①-②-|
⑥②①口 |③-④-|
口③④⑧ |⑤-⑥-|
口⑦口口 |⑦-⑧-|
5
口口⑤口 |①-②-|
⑥①②口 |③-④-|
口④③⑧ |⑤-⑥-|
口⑦口口 |⑦-⑧-|
6
①口③口 |①--②|
口②口③ |--③-|
③口②口 |----|
口③口① |----|
7
口②①口 |----|
③口口① |①---|
④口口② |②--③|
口④③口 |--④-|
8
③口口③ |----|
口②②口 |----|
口②②口 |--①-|
①口口① |②-③-|
9
①口口② |----|
口③④口 |----|
口⑤⑥口 |①-②-|
口口口口 |③④⑤⑥|
10
口口口口 |①---|
口口口口 |----|
口口口口 |----|
①口口① |----|
11
①口口① |①---|
口口口口 |----|
口口口口 |②---|
口②②口 |----|
12
①⑥⑤④ |①---|
口②③口 |②-③-|
①口口④ |--④-|
口口口口 |--⑤⑥|
13
口口口口 |①--②|
①口口② |--③-|
口③口口
口口口口

口口口口
口口口⑥
口口④口 |④--⑤|
口口口⑤ |--⑥-|
14
①口口① |①---|
口②③口 |②-③-|
口口口口 |----|
口口口口 |----|
15
③口口③ |①-②-|
口③③口 |--③-|
②口口② |----|
①④④① |④---|
16
口①①口 |①---|
②口口③ |----|
②口口③ |----|
口口口口 |②-③-|
17
口口口口 |----|
口口口口 |----|
口口口口 |----|
口口口口 |----|
18
口口口③ |①---|
口②口口 |②-③-|
口口②③ |----|
①口①口 |----|
19
②口①口 |--①-|
口④口③ |②-③-|
口口⑤⑥ |④-⑤-|
口口口口 |--⑥-|
20
口口口口 |--①-|
②①口口 |②---|
口口口口 |----|
②①口口 |----|
21
口④⑤口 |----|
③②口口 |①---|
口④⑤① |②-③-|
口口①口 |④-⑤-|
22
口口口口 |--①-|
口口②① |--②-|
口口口口 |----|
口口口口 |----|
23
⑥口口① |--①-|
口③②口 |②-③-|
口④③口 |④-⑤-|
⑤口口⑥ |--⑥-|
24
口口口口 |--①-|
口口口① |----|
①口口口 |----|
口口口口 |----|
25
口口口口 |----|
口口②① |----|
口口口③ |--①-|
口口口口 |②-③-|
26
口口②③ |①---|
③口口口 |②-③-|
②口①口 |----|
口口口口 |----|
27
⑤口口⑤ |--①-|
④①①④ |②-③-|
③②②③ |④-⑤-|
⑥口口口 |--⑥-|
28
口口口口 |①---|
口口口口 |②---|
口②②口 |----|
口口口① |----|
29
②④口③ |----|
口①①口 |①---|
口口口④ |②-③-|
口口口口 |--④-|
30
口口①② |--①-|
口口口口 |--②-|
口②①口 |----|
口口口口 |----|
31
④口口④ |----|
③口①口 |①---|
④口口④ |②-③-|
②口口口 |--④-|
32
口①①口 |--①-|
口口口口 |----|
口①①口 |----|
口口口口 |----|
33
口口口口 |----|
口口口口 |----|
②③③② |--①-|
口①①口 |②-③-|
34
①口口① |①---|
口口口口 |----|
口②口② |----|
口口口口 |--②-|
35
①③①③ |①---|
口④④口 |②-③-|
②口②口 |--④-|
口⑤⑤口 |--⑤-|
36
①口口① |--①-|
口③口③ |----|
口口口口 |----|
②口②口 |②-③-|
37
②口②口 |--①-|
口③口③ |--②-|
④口④口 |--③-|
口①口① |--④-|
38
口②口② |--①-|
口口口口 |--②-|
口②口② |----|
口①口① |----|
39
口⑤⑤口 |①---|
口①①④ |--②-|
③⑤⑤口 |③-④-|
口口口② |--⑤-|
40
①口口① |--①-|
口口口口 |----|
①口口① |----|
口口口口 |----|
41
口口口口 |----|
口口口口 |----|
口口口口 |----|
口口口口 |----|
42
①口③口 |①--②|
口②口③ |--③-|
③口②口 |----|
口③④① |--④-|
43
口③口口 |①--②|
口口④① |--③-|
口⑤口口 |--④-|
②口⑥口 |⑤-⑥-|
44
①口③口 |①--②|
口②口③ |--③-|
③口②口 |----|
口③④① |--④-|
45
③口口④ |①--②|
⑤口口① |--③-|
口口⑥口 |--④-|
口②口口 |⑤-⑥-|
46
③口口③ |①--②|
口②②口 |--③-|
口口口口 |----|
口①①口 |----|
47
①口②口 |----|
口口口③ |①---|
②口口口 |②--③|
口③口④ |--④-|
48
口口口口 |----|
口②口④ |----|
①口③口 |①-②-|
口口口口 |③-④-|
49
口口口口 |----|
口口口口 |----|
口口口口 |----|
口口口口 |----|
50
①口③口 |①--②|
口②口③ |--③-|
③口②口 |----|
口③④① |--④-|
51
口③口口 |①--②|
口口口① |--③-|
口口口口
②口口口

口口口口
⑥口口⑤
口口口口 |--④-|
口④④口 |⑤-⑥-|
52
①④③口 |①--②|
口②口③ |--③-|
③口②口 |----|
口③口① |--④-|
53
口口口② |①--②|
①口③口 |--③-|
口口口⑤ |--④-|
口④口⑥ |⑤-⑥-|
54
③口口③ |①---|
口口口② |--②-|
②①口口 |----|
口口①口 |③---|
55
口口口口 |--①-|
①②口③ |----|
①口②③ |②---|
口口口口 |③---|
56
②口①口 |①---|
口口口口 |--②-|
口口口口 |----|
口①口② |----|


不确定度: 0

最終更新:2013年03月23日 15:38