DOUBLE IMPACT
DOUBLE IMPACT

EXTREME

Level: 10
BPM: 265
Notes: 811

1
口口口口 |----|
口口口口 |----|
口口口口 |----|
口口口口 |----|
2
口口口口 |----|
口口口口 |----|
口口口口 |----|
口口口口 |----|
3
口口口口 |①-②-|
口口口口 |③-④-|
口①②口 |----|
口③④口 |----|
4
口口口口 |----|
口口口口 |----|
口口口口 |----|
口口口口 |----|
5
口口口口 |①-②-|
口口口口 |③-④-|
口①②口 |----|
口③④口 |----|
6
口口口口 |----|
口口口口 |----|
口口口口 |----|
口口口口 |----|
7
⑤口口⑤ |①-②-|
口⑤⑤口 |③-④-|
口①②口 |----|
口③④口 |⑤---|
8
口口口口 |----|
口口口口 |----|
口口口口 |----|
口口口口 |----|
9
口口口口 |①---|
口口口口 |----|
口口口口 |----|
口①①口 |----|
10
口口口口 |①---|
口口口口 |----|
口①①口 |----|
口口口口 |----|
11
①①口口 |①---|
③口口② |②-③-|
口④④口 |--④-|
口口⑤⑤ |--⑤-|
12
口口口口 |--①-|
口④④口 |--②-|
③口口② |③---|
①①口口 |④---|
13
口口①① |①---|
②口口③ |②-③-|
口④④口 |--④-|
口⑤⑤口 |--⑤-|
14
口口口口 |--①-|
口④④口 |--②-|
③口口② |③---|
①口口① |④---|
15
①②口① |①---|
口口口③ |----|
口④口口 |②-③-|
口口口⑤ |④-⑤-|
16
口口口口 |①---|
口②②口 |----|
口口口口 |②---|
①口口口 |----|
17
②⑩⑨① |①-②-③-|
⑫口口⑪ |④-⑤-⑥-|
④口口③ |⑦-⑧-⑨-|
⑥⑧⑦⑤ |⑩-⑪-⑫-|
18
④口口③ |①-②-③-|
口⑥⑤口 |④-⑤-⑥-|
⑧②①⑦ |⑦-⑧-⑨-|
⑩⑫⑪⑨ |⑩-⑪-⑫-|
19
口④①口 |①-②-|
②口⑦⑤ |③-④-|
⑧⑥③口 |⑤-⑥-|
口口口口 |⑦-⑧-|
20
⑥⑧⑦⑤ |①-②-|
口②口口 |③-④-|
口口口③ |⑤-⑥-|
口④①口 |⑦-⑧-|
21
口口口口 |①---|
①口口③ |②---|
口②②口 |③---|
口④⑤口 |④-⑤-|
22
口口口② |----|
口口口口 |①---|
①③口口 |②---|
口口口口 |③---|
23
口口②口 |①---|
①①②口 |--②-|
口口口口 |----|
口口③③ |③---|
24
①①口③ |--①-|
②口口口 |----|
口口口口 |②---|
口口口口 |③---|
25
口⑩⑨口 |①-②-③-|
⑫⑥⑤⑪ |④-⑤-⑥-|
④口口③ |⑦-⑧-⑨-|
⑧②①⑦ |⑩-⑪-⑫-|
26
⑫口口⑪ |①-②-③-|
口⑧⑦口 |④-⑤-⑥-|
⑥②①⑤ |⑦-⑧-⑨-|
⑩④③⑨ |⑩-⑪-⑫-|
27
口④①口 |①-②-|
②口⑦⑤ |③-④-|
⑧⑥③口 |⑤-⑥-|
口口口口 |⑦-⑧-|
28
⑥⑧⑦⑤ |①-②-|
口②口口 |③-④-|
口口口③ |⑤-⑥-|
口④①口 |⑦-⑧-|
29
口口口口 |①---|
①口口③ |②---|
口②②口 |③---|
口④⑤口 |④-⑤-|
30
口口口② |----|
口口口口 |①---|
①③口口 |②---|
口口口口 |③---|
31
口口⑧口 |①-②-|
①③口口 |③-④-|
⑦口④② |⑤-⑥-|
⑤口口⑥ |⑦-⑧-|
32
口①口口 |①-②-|
⑧⑨⑩④ |③-④-|
口⑦⑥⑤ |⑤-⑥-⑦-|
口③②口 |⑧-⑨-⑩-|
33
①⑤⑦③ |①-②-|
口口口口 |③-④-|
口口口口 |⑤-⑥-|
②⑥⑧④ |⑦-⑧-|
34
⑪口口⑫ |①-②-③-|
⑤③④⑥ |④-⑤-⑥-|
⑦①②⑧ |⑦-⑧-⑨-|
⑨口口⑩ |⑩-⑪-⑫-|
35
口①②口 |①-②-|
口⑤⑥口 |③-④-|
口⑦⑧口 |⑤-⑥-|
口③④口 |⑦-⑧-|
36
⑥口口⑧ |①-②-|
①口口③ |③-④-|
⑤口口⑦ |⑤-⑥-|
②口口④ |⑦-⑧-|
37
口⑤⑦口 |①-②-|
口①③口 |③-④-|
口⑥⑧口 |⑤-⑥-|
口②④口 |⑦-⑧-|
38
⑦口口⑧ |①-②-|
⑤口口⑥ |③-④-|
③口口④ |⑤-⑥-|
①口口② |⑦-⑧-|
39
口⑥⑧口 |①-②-|
口②④口 |③-④-|
口⑤⑦口 |⑤-⑥-|
口①③口 |⑦-⑧-|
40
③口口⑥ |①-②-|
④口口⑦ |③-④-⑤-|
⑤⑨口⑧ |⑥-⑦-⑧-|
①⑪⑩② |⑨-⑩-⑪-|
41
⑦⑤⑥口 |①-②-|
口①②口 |③-④-|
口口⑧口 |⑤-⑥-|
③口口④ |⑦-⑧-|
42
口口口口 |①-②-|
⑤③④⑧ |③-④-|
⑥①口⑨ |⑤-⑥-⑦-|
⑦口②⑩ |⑧-⑨-⑩-|
43
口①②口 |①-②-|
口⑤⑥口 |③-④-|
口⑦⑧口 |⑤-⑥-|
口③④口 |⑦-⑧-|
44
⑥口口⑧ |①-②-|
①口口③ |③-④-|
⑤口口⑦ |⑤-⑥-|
②口口④ |⑦-⑧-|
45
口⑤⑦口 |①-②-|
口①③口 |③-④-|
口⑥⑧口 |⑤-⑥-|
口②④口 |⑦-⑧-|
46
⑦口口⑧ |①-②-|
⑤口口⑥ |③-④-|
③口口④ |⑤-⑥-|
①口口② |⑦-⑧-|
47
⑫④⑧口 |①-②-③-|
⑪③⑦口 |④-⑤-⑥-|
⑩②⑥口 |⑦-⑧-⑨-|
⑨①⑤口 |⑩-⑪-⑫-|
48
口⑧⑫④ |①-②-③-|
口⑦⑪③ |④-⑤-⑥-|
口⑥⑩② |⑦-⑧-⑨-|
口⑤⑨① |⑩-⑪-⑫-|
49
口口口口 |①---|
①口口② |----|
①口口② |----|
口口口口 |②---|
50
①口口① |①---|
口①①口 |----|
口口口口 |----|
口口口口 |----|
51
⑤口口⑤ |①-②-|
①口口口 |③-④-|
口①②口 |----|
口③④口 |⑤---|
52
口①④口 |----|
口③口② |----|
口口口口 |①-②-|
口口口口 |③-④-|
53
⑤口口⑤ |①-②-|
①口⑤口 |③-④-|
口①②口 |----|
口③④口 |⑤---|
54
口口②口 |----|
口口口口 |----|
①口口口 |①---|
口口口口 |②---|
55
⑤口口⑤ |①-②-|
①口口口 |③-④-|
口①②口 |----|
口③④口 |⑤---|
56
口口口口 |①---|
口口口口 |----|
口口口口 |----|
口口口① |----|
57
⑤⑤⑤⑤ |①-②-|
④口口口 |③-④-|
口①②口 |----|
①③④口 |⑤---|
58
口口口口 |----|
口口②口 |----|
①口口口 |----|
口口口口 |①-②-|
59
⑤口口⑤ |①-②-|
①口口口 |③-④-|
口①②口 |----|
口③④口 |⑤---|
60
口①④口 |----|
口③口② |----|
口口口口 |①-②-|
口口口口 |③-④-|
61
⑤口口⑤ |①-②-|
①口⑤口 |③-④-|
口①②口 |----|
口③④口 |⑤---|
62
口口口口 |----|
口口口② |----|
口口口口 |①---|
①口口口 |②---|
63
⑤①口⑤ |①-②-|
口口口口 |③-④-|
口①②口 |----|
口③④口 |⑤---|
64
口口口口 |①---|
口口口口 |----|
①口口口 |----|
口口口口 |----|
65
⑤⑤⑤⑤ |①-②-|
④口口口 |③-④-|
口①②口 |----|
①③④口 |⑤---|
66
口口口口 |----|
口口口口 |----|
口口口口 |----|
口口口口 |----|
67
①口口① |①---|
口口口口 |----|
口口口口 |----|
口口口口 |----|
68
口①①口 |①---|
口口口口 |--②-|
口③②口 |----|
口②③口 |③---|
69
①口口① |①---|
口口口口 |----|
口口口③ |----|
②口口口 |②-③-|
70
口口口口 |①---|
①口口① |--②-|
口②②口 |----|
口③③口 |③---|
71
①②③④ |①-②-③-|
⑧⑦⑥⑤ |④-⑤-⑥-|
⑨⑩⑪⑫ |⑦-⑧-⑨-|
口口口口 |⑩-⑪-⑫-|
72
⑤⑥⑦口 |①-②-③-|
口⑧口⑨ |④-⑤-⑥-|
口口口口 |⑦---|
④③②① |⑧-⑨-|
73
⑤口口① |--①-|
②口⑥口 |②-③-|
口口③口 |④-⑤-|
④⑦口口 |⑥-⑦-|
74
口口①⑥ |①-②-|
⑤口口口 |--③-|
③②口口 |④---|
口口④口 |⑤-⑥-|
75
③③口口 |①---|
口口①① |②-③-|
⑤⑤②口 |--④-|
口口口④ |⑤---|
76
口口①⑤ |①-②-|
⑥②口口 |③-④-|
口口⑦③ |⑤-⑥-|
④⑧口口 |⑦-⑧-|
77
⑧④口口 |①-②-③-|
口⑩③⑦ |④-⑤-⑥-|
⑥②口⑨ |⑦-⑧-⑨-|
口口①⑤ |⑩---|
78
⑦⑦①④ |①-②-|
②口口口 |③-④-|
口⑤③口 |⑤-⑥-|
口口⑥口 |⑦---|
79
口口⑫口 |①-②-③-|
⑦③②⑥ |④-⑤-⑥-|
⑤⑪⑩④ |⑦-⑧-⑨-|
⑨①口⑧ |⑩-⑪-⑫-|
80
①⑤口④ |①-②-③-|
⑪⑦⑥⑩ |④-⑤-⑥-|
⑨口口⑧ |⑦-⑧-⑨-|
口③②⑫ |⑩-⑪-⑫-|
81
⑤⑨④⑧ |①-②-③-|
口⑪⑩口 |④-⑤-⑥-|
口③②⑫ |⑦-⑧-⑨-|
①⑦⑥口 |⑩-⑪-⑫-|
82
口口口口 |①-②-③-|
③口口② |④-⑤-⑥-|
①⑦⑥口 |⑦---|
⑤口口④ |----|
83
①①口② |①---|
③③口口 |②-③-|
口口口④ |--④-|
⑤⑤口口 |⑤---|
84
④口③⑪ |①-②-|
⑧⑩⑤① |③-④-⑤-|
②⑥⑨口 |⑥-⑦-⑧-|
口口口⑦ |⑨-⑩-⑪-|
85
⑨①⑧口 |①-②-③-|
口口⑩⑥ |④-⑤-⑥-|
⑦⑪口② |⑦-⑧-⑨-|
③⑤④⑫ |⑩-⑪-⑫-|
86
口⑤口④ |①-②-③-|
①③口口 |④-⑤-⑥-|
口口②⑥ |⑦---|
⑦口口口 |----|
87
④口①口 |①-②-|
⑤口②口 |③-④-|
⑥⑧③口 |⑤-⑥-|
口口⑦口 |⑦-⑧-|
88
口口口口 |①-②-|
⑦⑤⑧口 |③-④-|
口口⑥② |⑤-⑥-|
③①口④ |⑦-⑧-|
89
③④⑤⑥ |①-②-|
口⑨口② |③-④-⑤-|
①口口口 |⑥-⑦-|
⑧口⑦口 |⑧-⑨-|
90
口口口口 |①-②-|
①口②④ |③-④-|
③⑤⑥⑦ |⑤-⑥-⑦-|
口⑩⑨⑧ |⑧-⑨-⑩-|
91
②③④⑤ |①---|
口口口口 |②-③-④-|
⑥⑦⑧口 |⑤-⑥-⑦-|
①口口口 |⑧---|
92
口⑦⑧口 |①-②-|
③④⑤⑥ |③-④-⑤-|
口口口⑨ |⑥-⑦-|
口口①② |⑧-⑨-|
93
⑩⑪⑫口 |①-②-③-|
⑦⑧⑨口 |④-⑤-⑥-|
④⑤⑥口 |⑦-⑧-⑨-|
①②③口 |⑩-⑪-⑫-|
94
口口口① |①---|
口口口② |--②-|
口口口③ |----|
口口口口 |③---|
95
①⑧⑦口 |①-②-|
④②口口 |③-④-|
口⑤③口 |⑤-⑥-|
口口⑥口 |⑦-⑧-|
96
⑤口口① |①-②-|
口口⑥② |③-④-|
⑦口口③ |--⑤-|
口口口④ |⑥-⑦-|
97
⑦口口口 |①---|
口④口口 |②-③-|
口口③⑤ |④-⑤-|
②⑥①⑦ |⑥-⑦-|
98
口口口口 |①-②-|
口口口① |③---|
口②口口 |----|
口口③口 |----|
99
口②口口 |①---|
口口③⑦ |②-③-|
⑥④口口 |④-⑤-|
①①⑤口 |⑥-⑦-|
100
③口②口 |①-②-|
①口⑧口 |③-④-|
口口④口 |⑤-⑥-|
⑤⑦口⑥ |⑦-⑧-|
101
口口口⑧ |①-②-|
⑦①口⑥ |③-④-|
③⑤口② |⑤-⑥-|
口口④口 |⑦-⑧-|
102
①①口口 |①---|
口口口口 |----|
口口口口 |----|
口口口口 |----|
103
③口⑥口 |①-②-③-|
⑨⑦⑫⑩ |④-⑤-⑥-|
⑤⑪口⑧ |⑦-⑧-⑨-|
①口②④ |⑩-⑪-⑫-|
104
⑦①⑩② |①-②-③-|
口⑪口口 |④-⑤-⑥-|
⑨口④⑫ |⑦-⑧-⑨-|
⑤③⑥⑧ |⑩-⑪-⑫-|
105
口⑤口⑥ |①-②-③-|
①口④② |④-⑤-⑥-|
口③⑧口 |⑦-⑧-|
⑨⑦⑩口 |⑨-⑩-|
106
⑤⑦⑥⑧ |①-②-|
③口口口 |③-④-|
①口口④ |⑤-⑥-|
口口口② |⑦-⑧-|
107
口口口口 |①-②-③-|
⑩⑪⑫⑨ |④-⑤-⑥-|
④⑤⑥⑧ |⑦-⑧-⑨-|
①②③⑦ |⑩-⑪-⑫-|
108
①②③口 |①-②-③-|
口口口⑫ |④-⑤-⑥-|
⑦⑧⑨⑪ |⑦-⑧-⑨-|
④⑤⑥⑩ |⑩-⑪-⑫-|
109
口口口口 |①---|
①①口口 |----|
口口口口 |----|
口②②口 |②---|
110
①①①① |①---|
口口口口 |----|
口口口口 |----|
口口口口 |----|
111
口口口口 |----|
口口口口 |----|
口口口口 |----|
口口口口 |----|
112
口口口口 |----|
口口口口 |----|
口口口口 |----|
口口口口 |----|
113
口口口口 |①-②-|
口口口口 |③-④-|
口①②口 |----|
口③④口 |----|
114
口口口口 |----|
口口口口 |----|
口口口口 |----|
口口口口 |----|
115
口口口口 |①-②-|
口口口口 |③-④-|
口①②口 |----|
口③④口 |----|
116
口口口口 |----|
口口口口 |----|
口口口口 |----|
口口口口 |----|
117
①②口① |①---|
口①①③ |----|
④口口口 |②-③-|
口口⑤口 |④-⑤-|
118
口口口口 |①---|
口②②口 |----|
口口口口 |②---|
口①口口 |----|
119
口口口口 |①---|
口口③③ |----|
口①①口 |----|
②②口口 |②-③-|
120
①①口口 |①---|
口口口口 |----|
口口口口 |----|
口口口口 |----|
121
口口①① |①-②-|
②②口口 |③-④-|
口口③③ |----|
④④口口 |----|

不确定度: 0

最終更新:2012年11月06日 22:26