SHINE×SHINE×SHINE×SHINE
エイプリルズ

EXTREME

Level: 8
BPM: 138
Notes: 519

1
口口口口 |----|
口口口口 |----|
口口口口 |----|
口口口口 |----|
2
④口口⑤ |①--②|
①⑥⑦③ |--③-|
③②②① |④-⑤-|
①口口③ |⑥-⑦-|
3
口⑤⑥口 |①-②-|
②⑦⑧① |③-④-|
口⑨⑩口 |⑤⑥⑦⑧|
④⑪⑫③ |⑨⑩⑪⑫|
4
⑦⑮⑯⑧ |①②③④|
⑤⑬⑭⑥ |⑤⑥⑦⑧|
③⑪⑫④ |⑨⑩⑪⑫|
①⑨⑩② |⑬⑭⑮⑯|
5
⑫⑭⑬⑪ |①②③④|
口口⑩⑨ |⑤⑥⑦⑧|
③⑦⑧④ |⑨-⑩-|
①⑤⑥② |⑪⑫⑬⑭|
6
④口口⑤ |①--②|
①⑥⑦③ |--③-|
③②②① |④-⑤-|
①口口③ |⑥-⑦-|
7
③口④口 |①---|
口口口口 |②---|
⑤③⑤④ |③-④-|
②①①口 |--⑤-|
8
口口口口 |----|
③③口口 |----|
口②②口 |--①-|
口口①① |②-③-|
9
口口①⑥ |----|
口④口① |----|
②口⑤口 |①-②-|
③②口口 |③④⑤⑥|
10
①③口口 |①-②-|
②口⑧口 |③-④-|
口④口⑥ |⑤-⑥-|
口口⑦⑤ |⑦-⑧-|
11
口口⑧口 |①-②-|
①③口⑥ |③-④-|
②口⑦⑤ |⑤-⑥-|
口④口口 |⑦-⑧-|
12
③口口③ |①---|
口口①口 |②-③-|
口①口口
②口口②

口口口口
⑤④口口
口⑥④口 |--④-|
口口口口 |--⑤⑥|
13
口口口② |①--②|
口③口⑥ |--③-|
④口口口 |④--⑤|
口口⑤① |--⑥-|
14
①口口① |①---|
④口口⑤ |②-③-|
⑥口口⑦ |④-⑤-|
②口口③ |⑥-⑦-|
15
④②口③ |①-②-|
口口①口 |--③-|
口①口口 |----|
③口②④ |④---|
16
口口口口 |①-②-|
①③②① |③-④-|
①口口①
口口口④

⑤口口⑥
口口⑧⑧
⑦⑦口口 |⑤-⑥-|
口口口口 |⑦-⑧-|
17
口口口口 |①-②-|
①③⑧⑥ |③-④-|
⑤⑦④② |⑤-⑥-|
口口口口 |⑦-⑧-|
18
口①①口 |①---|
口口口口 |②-③-|
口③口口
②口口③

口⑤口口
口口④⑤
④口口口 |--④-|
口口口口 |--⑤-|
19
①口③口 |--①-|
口口口口 |②-③-|
口口口口
口口②口

⑥口口口
口口口口
④口口⑤ |④-⑤-|
口口口口 |--⑥-|
20
口④③口 |--①-|
③口口④ |②-③-|
口口①② |--④-|
⑤口口⑤ |--⑤-|
21
口④口口 |----|
⑤口口⑤ |①---|
③口④③ |②-③-|
②①①② |④-⑤-|
22
②口①② |--①-|
③口口③ |--②-|
口①口口 |--③-|
④口口④ |--④-|
23
口口口口 |--①-|
口口口口 |②-③-|
②口口③
口①①口

口④⑤口
⑥口口⑥
口口口口 |④-⑤-|
口⑥⑥口 |--⑥-|
24
①④④① |--①-|
③②②③ |--②-|
④①①④ |--③-|
②③③② |--④-|
25
②⑦⑧② |--①-|
⑥口③口 |-②③④|
⑥口④⑧ |⑤-⑥-|
①口⑤① |⑦-⑧-|
26
口口口口 |①---|
口②③① |②-③-|
口口口口
①口口口

口⑤④口
④口口⑤
口口口口 |--④-|
口口口口 |--⑤-|
27
口⑥⑤口 |--①-|
⑤口口⑥ |②-③-|
③①②④ |④-⑤-|
口口口口 |--⑥-|
28
口⑥⑤口 |①-②-|
⑤④②⑥ |③-④-|
②③①④ |--⑤-|
口口口口 |--⑥-|
29
③⑤⑥① |--①-|
⑥④⑤口 |②-③-|
口口④⑦ |④-⑤-|
②口口② |⑥-⑦-|
30
口③④口 |--①-|
④口口③ |--②-|
口①②口 |--③-|
②口口① |--④-|
31
①口口口 |----|
口③口② |①---|
①口口口 |②-③-|
④口口④ |--④-|
32
①口②① |--①-|
②③口口 |--②-|
口口④③ |--③-|
④口口口 |--④-|
33
①口口① |--①-|
口⑦⑦② |--②③|
③⑥⑥口 |④-⑤-|
口⑤⑤④ |⑥-⑦-|
34
口①①口 |①-②-|
②⑤⑤② |--③-|
口④③口 |--④-|
③口口④ |--⑤-|
35
①③③① |①---|
④口口④ |②-③-|
⑤口口口 |--④-|
口②②口 |--⑤-|
36
口④⑤口 |--①-|
口口口口 |--②-|
口③②① |--③-|
②口口③ |④-⑤-|
37
口口口口 |①②③-|
④③口⑤ |--④⑤|
①④口② |--⑥-|
⑦⑥⑥⑦ |--⑦-|
38
①口口① |--①-|
口②②口 |--②-|
口④③口 |--③-|
③口口④ |--④-|
39
⑤口口口 |①---|
②①①③ |--②-|
⑤④④口 |③-④-|
口口口口 |--⑤-|
40
口③④① |--①-|
口口口口 |--②-|
口④③① |--③-|
口②②口 |--④-|
41
⑮⑬⑭⑯ |①②③④|
①⑪⑫② |⑤⑥⑦⑧|
③⑨⑩④ |⑨⑩⑪⑫|
⑤⑦⑧⑥ |⑬⑭⑮⑯|
42
④口口⑦ |①--②|
①⑥⑤③ |--③-|
③②②① |④-⑤-|
①口口③ |⑥-⑦-|
43
口口口口 |①--②|
口③③口 |--③-|
①口口②
口口口口

⑥口口④
口口口口
⑤口口口 |--④-|
口口口口 |⑤-⑥-|
44
④口口⑦ |①--②|
①⑥⑤③ |--③-|
③②②① |④-⑤-|
①口口③ |⑥-⑦-|
45
口④口口 |①--②|
口口⑤① |--③-|
②⑥口口 |--④-|
口口口③ |⑤-⑥-|
46
⑥⑥口口 |①--②|
⑤⑤③③ |--③-|
④④②② |④--⑤|
口口①① |--⑥-|
47
口口②② |①---|
口③④口 |②---|
口④③口 |③--④|
⑤⑤①① |--⑤-|
48
口口口④ |----|
⑤口口③ |----|
口①②口 |①-②-|
口口口③ |③-④⑤|
49
口口口口 |①--②|
口口口口 |--③-|
口③口①
口口②口

④口口④
口⑤口口
口口口口 |④--⑤|
口口⑥口 |--⑥-|
50
④口口⑦ |①--②|
①⑥⑤③ |--③-|
③②②① |④-⑤-|
①口口③ |⑥-⑦-|
51
口④口口 |①--②|
⑤口口① |--③-|
②口口⑥ |--④-|
口口口③ |⑤-⑥-|
52
④⑦口口 |①--②|
③⑥⑤③ |--③-|
口②②口 |④-⑤-|
口口①口 |⑥-⑦-|
53
口口口口 |①--②|
①口口⑤ |--③-|
②⑥⑥④ |--④-|
口③口口 |⑤-⑥-|
54
②口口② |①---|
③①①③ |--②-|
口口口口 |----|
口口口口 |③---|
55
口③③口 |--①-|
口口口口 |----|
①③③① |②---|
②口口② |③---|
56
②口口② |①---|
①②②① |--②-|
①口口① |----|
口口口口 |----|
57
口口口口 |①②--|
②⑤⑤① |--③④|
④⑤⑤③ |----|
口口口口 |⑤---|


不确定度: 0

最終更新:2013年03月23日 15:38