Sandstorm

BASIC

Level: 2
BPM: 136
Notes: 181

1
口口口口 |----|
口口口口 |----|
口口口口 |----|
口口口口 |----|
2
口①口口 |①---|
口口口口 |----|
口口口口 |----|
口口口口 |----|
3
口口口口 |----|
口口口口 |----|
口口口口 |----|
口口口口 |----|
4
口口口口 |①---|
口口①口 |----|
口口口口 |----|
口口口口 |----|
5
口口口口 |①---|
口口口口 |----|
口①口口 |----|
口口口口 |----|
6
口口口口 |①---|
口口口口 |----|
口口口口 |----|
口口①口 |----|
7
口口口口 |①---|
口口口口 |----|
口口口口 |----|
口①口口 |----|
8
口口口口 |①---|
口口口口 |----|
口口①口 |----|
口口口口 |----|
9
口口口口 |①---|
口①口口 |----|
口口口口 |----|
口口口口 |----|
10
口①①口 |①---|
口口口口 |----|
口口口口 |----|
口口口口 |----|
11
口口口口 |----|
口口口口 |----|
口口口口 |----|
口口口口 |----|
12
口口口口 |①---|
口①①口 |----|
口口口口 |----|
口口口口 |----|
13
口口口口 |----|
口口口口 |----|
口口口口 |----|
口口口口 |----|
14
口口①口 |①---|
口②口口 |----|
口口口口 |②---|
口口口口 |----|
15
口口口口 |①---|
口口口口 |----|
口口①口 |②---|
口②口口 |----|
16
口口口口 |①---|
口口口口 |----|
口②口口 |②---|
①口口口 |----|
17
口口②② |①---|
口口①① |----|
口口口口 |②---|
口口口口 |----|
18
口口口口 |①---|
口口口口 |②---|
口①③口 |③---|
口②④口 |④---|
19
口①③口 |①---|
口②④口 |②---|
口口口口 |③---|
口口口口 |④---|
20
口口口口 |①---|
口口口口 |②---|
口①③口 |③---|
口②④口 |④---|
21
口口口口 |①---|
口口口口 |②---|
①口口③ |③---|
②口口④ |④---|
22
口口口口 |①---|
口口口口 |②---|
口①②口 |③---|
口③④口 |④---|
23
口①②口 |①---|
口③④口 |②---|
口口口口 |③---|
口口口口 |④---|
24
口口口口 |①---|
口口口口 |②---|
口①②口 |③---|
口③④口 |④---|
25
口口口口 |①---|
口口口口 |②---|
①口口② |③---|
③口口④ |④---|
26
口口口口 |①---|
口口口口 |②---|
口②③口 |③---|
口①④口 |④---|
27
口②③口 |①---|
口①④口 |②---|
口口口口 |③---|
口口口口 |④---|
28
口口口口 |①---|
口口口口 |②---|
口②③口 |③---|
口①④口 |④---|
29
口口口口 |①---|
口口口口 |②---|
②口口③ |③---|
①口口④ |④---|
30
口口口口 |①---|
口口口口 |②---|
口①③口 |③---|
口④②口 |④---|
31
①口口③ |①---|
口④②口 |②---|
口口口口 |③---|
口口口口 |④---|
32
口口口口 |①---|
口口口口 |②---|
①③口口 |③---|
口口②④ |④---|
33
口口口口 |①---|
口口口口 |②---|
口口③① |③---|
④②口口 |④---|
34
口①①口 |①---|
口②口口 |②---|
口③口口 |③---|
口④口口 |④---|
35
口口①口 |①---|
口口②口 |②---|
口口③口 |③---|
口口④口 |④---|
36
口口④口 |①---|
口③口口 |②---|
口口②口 |③---|
口①口口 |④---|
37
①③③① |①---|
②④④② |②---|
口口口口 |③---|
口口口口 |④---|
38
口口口口 |①---|
①口口① |②---|
口②③④ |③---|
口口口口 |④---|
39
口口口口 |①---|
口口口口 |②---|
口口口口 |③---|
④③②① |④---|
40
口④口口 |①---|
口口③口 |②---|
口②口口 |③---|
口口①口 |④---|
41
②③③② |①---|
①④④① |②---|
口口口口 |③---|
口口口口 |④---|
42
口口口口 |①---|
口口口口 |②---|
③④④口 |③---|
①①口② |④---|
43
口④④③ |①---|
②口口① |②---|
口口口口 |③---|
口口口口 |④---|
44
①口口② |①---|
③④④口 |②---|
口口口口 |③---|
口口口口 |④---|
45
口口口口 |①---|
口口口口 |②---|
①口口② |③---|
③④④口 |④---|
46
①②②① |①---|
口④④③ |②---|
口口口口 |③---|
口口口口 |④---|
47
口口口口 |①---|
口口口口 |②---|
①②②口 |③---|
口④④③ |④---|
48
③②②③ |①---|
①④④① |②---|
口口口口 |③---|
口口口口 |④---|
49
口口口口 |①---|
①口口① |②---|
②口口② |③---|
③④④③ |④---|
50
口口口口 |①---|
口①①口 |----|
口①①口 |----|
口口口口 |----|


不确定度: 0

最終更新:2012年11月15日 18:03