Sandstorm

ADVANCED

Level: 6
BPM: 136
Notes: 370

1
口口口口 |----|
口口口口 |----|
口口口口 |----|
口口口口 |----|
2
口口口口 |①---|
口①①口 |----|
口口口口 |----|
口口口口 |----|
3
口口口口 |----|
口口口口 |----|
口口口口 |----|
口口口口 |----|
4
口口口口 |①---|
口口④口 |②---|
口②③口 |③---|
口①口口 |④---|
5
口①①口 |①---|
口②③口 |②---|
口口④口 |③---|
口口口口 |④---|
6
口口口口 |①---|
口口④口 |②---|
口②③口 |③---|
口①①口 |④---|
7
①口口① |①---|
②口口③ |②---|
口口口④ |③---|
口口口口 |④---|
8
口口口口 |①---|
口口口④ |②---|
②口口③ |③---|
①口口① |④---|
9
口①①口 |①---|
口②口口 |②---|
口口③④ |③---|
口口口④ |④---|
10
口口②口 |①---|
①口口① |②---|
口口口口 |----|
口口口口 |----|
11
口口口口 |----|
口口口口 |----|
①口口口 |----|
①口口口 |①---|
12
口②口口 |①---|
①口口① |②---|
口口口口 |----|
口口口口 |----|
13
口口口口 |----|
口口口口 |----|
口口口口 |----|
口口口口 |----|
14
①口口① |①---|
③②口③ |②---|
口口④口 |③---|
口口口口 |④---|
15
口口口口 |①---|
口口口口 |②---|
①口口① |③---|
③②④③ |④---|
16
口口①⑧ |①-②-|
⑦②口口 |③-④-|
口口③⑥ |⑤-⑥-|
⑤④口口 |⑦-⑧-|
17
口口①⑧ |①-②-|
⑦②口口 |③-④-|
口口③⑥ |⑤-⑥-|
⑤④口口 |⑦-⑧-|
18
口⑧口口 |①-②-|
口口口口 |③-④-|
④①①⑤ |⑤-⑥-|
⑥②③⑦ |⑦-⑧-|
19
④⑧①⑤ |①-②-|
⑥②③⑦ |③-④-|
口口口口 |⑤-⑥-|
口口口口 |⑦-⑧-|
20
口口口口 |①-②-|
口⑧⑧口 |③-④-|
③①②④ |⑤-⑥-|
⑤⑦口⑥ |⑦-⑧-|
21
口口口口 |①-②-|
口⑧⑧口 |③-④-|
③①②④ |⑤-⑥-|
⑤⑦口⑥ |⑦-⑧-|
22
口口⑧口 |①-②-|
口口口口 |③-④-|
⑦⑤①③ |⑤-⑥-|
口⑥②④ |⑦-⑧-|
23
⑥④⑧② |①-②-|
⑦⑤①③ |③-④-|
口口口口 |⑤-⑥-|
口口口口 |⑦-⑧-|
24
口口口口 |①-②-|
口⑧⑧口 |③-④-|
⑦⑤①③ |⑤-⑥-|
口⑥②④ |⑦-⑧-|
25
口口口口 |①-②-|
口⑧⑧口 |③-④-|
⑦⑤①③ |⑤-⑥-|
口⑥②④ |⑦-⑧-|
26
口口⑧口 |①-②-|
口口口口 |③-④-|
⑦③①⑤ |⑤-⑥-|
④口⑥② |⑦-⑧-|
27
⑥②⑧④ |①-②-|
③⑦⑤① |③-④-|
口口口口 |⑤-⑥-|
口口口口 |⑦-⑧-|
28
口⑧⑧口 |①-②-|
口口口口 |③-④-|
⑦③①⑤ |⑤-⑥-|
④口⑥② |⑦-⑧-|
29
口⑧⑧口 |①-②-|
口口口口 |③-④-|
⑦③①⑤ |⑤-⑥-|
④口⑥② |⑦-⑧-|
30
口口⑧口 |①-②-|
口口口口 |③-④-|
⑦③①⑤ |⑤-⑥-|
⑥②④口 |⑦-⑧-|
31
⑥②⑧④ |①-②-|
⑤①③⑦ |③-④-|
口口口口 |⑤-⑥-|
口口口口 |⑦-⑧-|
32
口⑧⑧口 |①-②-|
口口口口 |③-④-|
⑦③①⑤ |⑤-⑥-|
⑥②④口 |⑦-⑧-|
33
口⑧⑧口 |①-②-|
口口口口 |③-④-|
⑦③①⑤ |⑤-⑥-|
⑥②④口 |⑦-⑧-|
34
口口口口 |①-②-|
口①①口 |③-④-|
⑧②③⑧ |⑤-⑥-|
⑥④⑤⑦ |⑦-⑧-|
35
⑤③④⑥ |①-②-|
⑦①②⑦ |③-④-|
⑧口口⑧ |⑤-⑥-|
口口口口 |⑦-⑧-|
36
口口口口 |①-②-|
口⑧口口 |③-④-|
⑦⑤⑥口 |⑤-⑥-|
③①②④ |⑦-⑧-|
37
⑥④⑤⑦ |①-②-|
②⑧①③ |③-④-|
口口口口 |⑤-⑥-|
口口口口 |⑦-⑧-|
38
口口口口 |①-②-|
口口口口 |③-④-|
①②③①
口④口口

口口口口
口口口口
⑧口口⑧ |⑤-⑥-|
⑥口⑤⑦ |⑦-⑧-|
39
⑤③④⑥ |①-②-|
⑦①②⑦ |③-④-|
⑧口口⑧ |⑤-⑥-|
口口口口 |⑦-⑧-|
40
口口口口 |①-②-|
口⑧口口 |③-④-|
⑦⑤⑥口 |⑤-⑥-|
③①②④ |⑦-⑧-|
41
⑥④⑤⑦ |①-②-|
②⑧①③ |③-④-|
口口口口 |⑤-⑥-|
口口口口 |⑦-⑧-|
42
口⑦⑦口 |①-②-|
口⑧⑧口 |③-④-|
①②③① |⑤-⑥-|
④⑥口⑤ |⑦-⑧-|
43
口⑧⑧口 |①-②-|
口⑦⑦口 |③-④-|
口②①口 |⑤-⑥-|
④⑥⑤③ |⑦-⑧-|
44
口⑦⑦口 |①-②-|
口⑧⑧口 |③-④-|
口②①口 |⑤-⑥-|
④⑥⑤③ |⑦-⑧-|
45
口⑧⑧口 |①-②-|
口⑦⑦口 |③-④-|
口①②口 |⑤-⑥-|
③⑤⑥④ |⑦-⑧-|
46
③⑦⑦③ |①---|
②⑥⑥② |②-③-|
①⑤④① |④-⑤-|
口口口口 |⑥-⑦-|
47
④⑧⑧④ |①-②-|
③⑦⑦③ |③-④-|
⑥口口⑤ |⑤-⑥-|
②口口① |⑦-⑧-|
48
口⑦⑦⑧ |①-②-|
⑥⑤⑤口 |③-④-|
口③③④ |⑤-⑥-|
②①①口 |⑦-⑧-|
49
口⑦⑦⑧ |①-②-|
⑥⑤⑤口 |③-④-|
口③③④ |⑤-⑥-|
②①①口 |⑦-⑧-|
50
口口口口 |①---|
口口口口 |----|
口口口口 |----|
①①①① |----|


不确定度: 0

最終更新:2012年11月15日 18:03