Sandstorm

EXTREME

Level: 8
BPM: 136
Notes: 562

1
口口口口 |----|
口口口口 |----|
口口口口 |----|
口口口口 |----|
2
口口口口 |①---|
口①①口 |----|
①口口① |----|
口口口口 |----|
3
口口口口 |----|
口口口口 |----|
口口口口 |----|
口口口口 |----|
4
①口口口 |①--②|
口口口口 |--③-|
⑤口⑥口 |④--⑤|
②口③④ |--⑥-|
5
⑤口⑥口 |①--②|
②口③④ |--③-|
口口口① |④--⑤|
口口口口 |--⑥-|
6
口口口① |①--②|
口口口口 |--③-|
⑤口⑥口 |④--⑤|
②口③④ |--⑥-|
7
⑤口⑥口 |①--②|
②口③④ |--③-|
口口口① |④--⑤|
口口口口 |--⑥-|
8
口口口① |①--②|
口口口口 |--③-|
⑤口⑥口 |④--⑤|
②口③④ |--⑥-|
9
④③口② |①--②|
口口⑤口 |--③-|
口⑤口① |④---|
口口口口 |⑤---|
10
口口口口 |①②③④|
口④口① |⑤---|
口口②口
口③口⑤

口口口口
口口口口
⑥口⑦口 |---⑥|
口口口口 |--⑦-|
11
口⑤口口 |①--②|
④③⑤② |--③-|
口口口① |④---|
口口口口 |⑤---|
12
④口①口 |①②③④|
⑥②⑦口 |⑤---|
③口⑤口 |---⑥|
口口口口 |--⑦-|
13
口口口口 |①--②|
口口口① |--③-|
④③口② |④--⑤|
⑤口⑥口 |--⑥-|
14
①口④口 |①②③④|
⑨②⑥口 |⑤---|
⑤⑦③口 |⑥⑦⑧⑨|
⑧口⑩口 |⑩---|
15
口⑨口⑥ |①②③④|
口①⑦④ |⑤---|
口⑧②⑩ |⑥⑦⑧⑨|
口⑤口③ |⑩---|
16
⑨⑩⑪⑫ |①②③④|
⑧⑦⑭⑬ |⑤⑥⑦⑧|
⑤⑥⑮⑯ |⑨⑩⑪⑫|
④③②① |⑬⑭⑮⑯|
17
⑨⑩⑪⑫ |①②③④|
⑧⑦口⑬ |⑤⑥⑦⑧|
⑤⑥口口 |⑨⑩⑪⑫|
④③②① |⑬---|
18
⑥⑬⑭⑦ |①②③④|
口⑤⑫口 |⑤-⑥⑦|
⑧③①⑩ |⑧⑨⑩⑪|
⑪②④⑨ |⑫-⑬⑭|
19
⑥⑬⑭⑦ |①②③④|
口⑤⑫口 |⑤-⑥⑦|
⑧①③⑩ |⑧⑨⑩⑪|
⑪④②⑨ |⑫-⑬⑭|
20
⑥⑬⑭⑦ |①②③④|
口⑤⑫口 |⑤-⑥⑦|
⑧①③⑩ |⑧⑨⑩⑪|
⑪④②⑨ |⑫-⑬⑭|
21
①⑬⑭③ |①②③④|
④口⑫② |⑤-⑥⑦|
⑧⑤口⑩ |⑧⑨⑩⑪|
⑪⑥⑦⑨ |⑫-⑬⑭|
22
⑥⑬⑭⑦ |①②③④|
口⑤⑫口 |⑤-⑥⑦|
⑧③①⑩ |⑧⑨⑩⑪|
⑪②④⑨ |⑫-⑬⑭|
23
⑥⑬⑭⑦ |①②③④|
口⑤⑫口 |⑤-⑥⑦|
⑧①③⑩ |⑧⑨⑩⑪|
⑪④②⑨ |⑫-⑬⑭|
24
⑥⑬⑭⑦ |①②③④|
口⑤⑫口 |⑤-⑥⑦|
⑧①③⑩ |⑧⑨⑩⑪|
⑪④②⑨ |⑫-⑬⑭|
25
①⑬⑭③ |①②③④|
④口⑫② |⑤-⑥⑦|
⑧⑤口⑩ |⑧⑨⑩⑪|
⑪⑥⑦⑨ |⑫-⑬⑭|
26
⑥⑬⑭⑦ |①②③④|
口⑤⑫口 |⑤-⑥⑦|
⑧③①⑩ |⑧⑨⑩⑪|
⑪②④⑨ |⑫-⑬⑭|
27
⑥⑬⑭⑦ |①②③④|
口⑤⑫口 |⑤-⑥⑦|
⑧①③⑩ |⑧⑨⑩⑪|
⑪④②⑨ |⑫-⑬⑭|
28
⑥⑬⑭⑦ |①②③④|
口⑤⑫口 |⑤-⑥⑦|
⑧①③⑩ |⑧⑨⑩⑪|
⑪④②⑨ |⑫-⑬⑭|
29
①⑬⑭③ |①②③④|
④口⑫② |⑤-⑥⑦|
⑧⑤口⑩ |⑧⑨⑩⑪|
⑪⑥⑦⑨ |⑫-⑬⑭|
30
⑥⑬⑭⑦ |①②③④|
口⑤⑫口 |⑤-⑥⑦|
⑧③①⑩ |⑧⑨⑩⑪|
⑪②④⑨ |⑫-⑬⑭|
31
⑥⑬⑭⑦ |①②③④|
口⑤⑫口 |⑤-⑥⑦|
⑧①③⑩ |⑧⑨⑩⑪|
⑪④②⑨ |⑫-⑬⑭|
32
⑥⑬⑭⑦ |①②③④|
口⑤⑫口 |⑤-⑥⑦|
⑧①③⑩ |⑧⑨⑩⑪|
⑪④②⑨ |⑫-⑬⑭|
33
①⑬⑭③ |①②③④|
④口⑫② |⑤-⑥⑦|
⑧⑤口⑩ |⑧⑨⑩⑪|
⑪⑥⑦⑨ |⑫-⑬⑭|
34
④⑪⑪⑨ |①②③-|
①口⑤② |④-⑤⑥|
⑧③⑥口 |⑦⑧⑨-|
口⑩⑩⑦ |⑩-⑪-|
35
口口口口 |①②③-|
①⑤⑥口 |④-⑤⑥|
④口口②
③口口口

⑪口口⑪
口口口口
口⑦⑧口 |⑦⑧⑨-|
⑩⑨口⑩ |⑩-⑪-|
36
口口⑤口 |①②③-|
④⑥口③ |④-⑤⑥|
口口口②
口口①口

⑧口口⑪
口口⑫口
⑦口⑨口 |⑦⑧⑨-|
口⑩⑩口 |⑩-⑪⑫|
37
口②⑤口 |①②③-|
口⑥口口 |④-⑤⑥|
口①口③
④口口④

⑧口口口
口口口口
⑦口⑨口 |⑦⑧⑨-|
⑫⑩⑩⑪ |⑩-⑪⑫|
38
④⑪⑪⑨ |①②③-|
①口⑤② |④-⑤⑥|
⑧③⑥口 |⑦⑧⑨-|
口⑩⑩⑦ |⑩-⑪-|
39
口口口口 |①②③-|
①⑤⑥口 |④-⑤⑥|
④口口②
③口口口

⑪口口⑪
口口口口
口⑦⑧口 |⑦⑧⑨-|
⑩⑨口⑩ |⑩-⑪-|
40
口口⑤口 |①②③-|
④⑥口③ |④-⑤⑥|
口口口②
口口①口

⑧口口⑪
口口⑫口
⑦口⑨口 |⑦⑧⑨-|
口⑩⑩口 |⑩-⑪⑫|
41
⑧②⑤⑪ |①②③-|
口⑥⑫口 |④-⑤⑥|
⑦①⑨③ |⑦⑧⑨-|
④⑩⑩④ |⑩-⑪⑫|
42
口②⑤口 |①②③-|
口⑥口口 |④-⑤⑥|
口①口③
④口口④

⑧口口口
口口口口
⑦口⑨口 |⑦⑧⑨-|
⑪⑩⑩⑪ |⑩-⑪-|
43
⑧口⑤口 |①②③-|
③⑥②④ |④-⑤⑥|
⑦①⑨口 |⑦⑧⑨-|
⑪⑩⑩⑪ |⑩-⑪-|
44
口⑧①⑤ |①②③-|
④②⑥③ |④-⑤⑥|
口⑦口⑨ |⑦⑧⑨-|
⑪⑩⑩⑪ |⑩-⑪-|
45
口口⑤口 |①②③-|
③⑥②④ |④-⑤⑥|
口口①口
口口口口

⑧口口口
口口口口
⑦口⑨口 |⑦⑧⑨-|
⑪⑩⑩⑪ |⑩-⑪-|
46
⑤③口⑤ |①②③-|
④⑧②④ |④-⑤-|
⑩①⑦⑩ |⑥⑦⑧-|
⑨⑥口⑨ |⑨-⑩-|
47
⑤③口⑤ |①②③-|
④⑧②④ |④-⑤-|
⑩①⑦⑩ |⑥⑦⑧-|
⑨⑥口⑨ |⑨-⑩-|
48
③⑦⑪③ |①②③-|
⑥⑩②⑥ |④⑤⑥-|
⑨①⑤⑨ |⑦⑧⑨-|
⑫④⑧⑫ |⑩⑪⑫-|
49
③⑦⑪③ |①②③-|
⑥⑩②⑥ |④⑤⑥-|
⑨①⑤⑨ |⑦⑧⑨-|
⑫④⑧⑫ |⑩⑪⑫-|
50
口口口口 |①---|
①口口① |----|
口①①口 |----|
口口口口 |----|


不确定度: 0

最終更新:2012年11月15日 18:02