SAMURAI GROOVE
DUFF

ADVANCED

Level: 7
BPM: 128
Notes: 411

1
口口口口 |----|
口口口口 |----|
口口口口 |----|
口口口口 |----|
2
①②③④ |①-②-|
口口⑤口 |③-④-|
⑥⑨口口 |⑤-⑥⑦|
⑧⑦口口 |⑧-⑨-|
3
口⑦⑥⑤ |--①②|
口口⑧口 |③-④-|
口口①④ |⑤-⑥-|
口口③② |⑦-⑧-|
4
口口⑧口 |①-②-|
口①⑦口 |③-④-|
口②④⑤ |⑤-⑥-|
口③⑥口 |⑦-⑧-|
5
口口口口 |--①②|
口①④口 |③-④-|
口③②口 |⑤-⑥-|
⑧⑦⑥⑤ |⑦-⑧-|
6
①②③④ |①-②-|
口口⑤口 |③-④-|
⑥⑨口口 |⑤-⑥⑦|
⑧⑦口口 |⑧-⑨-|
7
口口口口 |--①②|
⑧⑦⑥⑤ |③-④-|
口口①④ |⑤-⑥-|
口口③② |⑦-⑧-|
8
①②③④ |①-②-|
口口⑤口 |③-④-|
⑥⑨口口 |⑤-⑥⑦|
⑧⑦口口 |⑧-⑨-|
9
⑧⑦⑥⑤ |--①②|
⑧⑦⑥⑤ |③-④-|
口口①④ |⑤-⑥-|
口口③② |⑦-⑧-|
10
口口口口 |①-②-|
口⑧④口 |③-④-|
⑥⑦③② |⑤-⑥-|
⑤口口① |⑦-⑧-|
11
口⑧④口 |①-②-|
⑥⑦③② |③-④-|
⑤口口① |⑤-⑥-|
口口口口 |⑦-⑧-|
12
口口口口 |①-②-|
⑤口④口 |③-④-|
⑥⑦③② |⑤-⑥-|
口⑧口① |⑦-⑧-|
13
口⑧④口 |①-②-|
⑥⑦③② |③-④-|
⑤口口① |⑤-⑥-|
口口口口 |⑦-⑧-|
14
口口口口 |①-②-|
口⑧④口 |③-④-|
⑥⑦③② |⑤-⑥-|
⑤口口① |⑦-⑧-|
15
口⑧④口 |①-②-|
⑥⑦③② |③-④-|
⑤口口① |⑤-⑥-|
口口口口 |⑦-⑧-|
16
口口口口 |①-②-|
⑤口④口 |③-④-|
⑥⑦③② |⑤-⑥-|
口⑧口① |⑦-⑧-|
17
⑥⑥④口 |①-②-|
口口③② |③-④-|
⑤⑤口① |--⑤-|
口口口口 |⑥---|
18
口口口口 |①---|
⑤口①② |②---|
口④②① |③-④-|
③口口口 |⑤---|
19
口①②③ |-①②③|
⑦⑥⑤④ |④⑤⑥⑦|
口⑨⑨口 |⑧---|
口⑧⑧口 |⑨---|
20
口口②① |①---|
口④③口 |②---|
口⑤口口 |③---|
口口口口 |④-⑤-|
21
口①①口 |①---|
⑤口口⑤ |②-③-|
④口口④ |④-⑤-|
口③②口 |----|
22
①②③口 |①②③-|
口④⑤④ |④-⑤-|
口口口口
口口口口

⑩⑪⑫口
口口口口
⑨⑧⑦⑥ |⑥⑦⑧⑨|
口口口口 |-⑩⑪⑫|
23
口口口口 |①---|
口①②① |②-③-|
⑥④⑤③ |④-⑤-|
口口口口 |⑥---|
24
④③②① |①②③④|
⑧⑦⑥⑤ |⑤⑥⑦⑧|
口口⑩⑨ |⑨⑩⑪-|
⑪口⑫口 |⑫---|
25
①口口④ |①-②-|
⑥⑤⑤⑥ |③-④-|
⑥⑤⑤⑥ |⑤---|
③口口② |⑥---|
26
①②③口 |①②③-|
口④⑤口 |④-⑤-|
口口口口
口口口口

⑩⑪⑫口
口口口口
⑨⑧⑦⑥ |⑥⑦⑧⑨|
口口口口 |-⑩⑪⑫|
27
口口口口 |①---|
②①②① |②---|
口③口口 |③---|
口③③口 |----|
28
口④⑤口 |①---|
口⑥③口 |②---|
②口口① |③-④-|
口口口口 |⑤-⑥-|
29
口口口口 |①---|
②口口① |②---|
口④⑤口 |③-④-|
口⑥③口 |⑤-⑥-|
30
①②口③ |①②-③|
口④⑤口 |④-⑤-|
口口口口
口口口口

⑧⑨⑩口
口口口口
口⑦口⑥ |⑥-⑦-|
口口口口 |⑧⑨⑩-|
31
口口口口 |①---|
②①②① |②---|
口③③口 |③---|
口③③口 |----|
32
口④⑤口 |①---|
口⑥③口 |②---|
②口口① |③-④-|
口口口口 |⑤-⑥-|
33
口口口口 |①---|
②口口① |②-③-|
口口口口
③口口③

⑥⑤⑤口
口⑦口口
口口⑧口 |④-⑤-|
口④④⑨ |⑥⑦⑧⑨|
34
口口口口 |①--②|
口口①口 |----|
口②口口 |----|
口口口口 |----|
35
口口④③ |①---|
口①②口 |②---|
口②①口 |③④⑤⑥|
⑤⑥⑦口 |⑦---|
36
③口口③ |①---|
口①②口 |②---|
口②①口 |----|
口口口口 |③---|
37
口口口口 |①-②-|
口口口口 |----|
①口口①
②口口②

口口口③
口口④口
口⑤口口 |----|
⑥口口口 |③④⑤⑥|
38
口口口口 |①--②|
口①口口 |----|
口口②口 |----|
口口口口 |----|
39
口⑤④③ |①---|
口①②口 |②---|
口②①口 |③④⑤⑥|
⑥⑦口口 |⑦---|
40
③口口③ |①---|
口①②口 |②---|
口②①口 |----|
口口口口 |③---|
41
口口口口 |①-②-|
口口口口 |----|
①口口①
②口口②

口口口③
口口④口
口⑤口口 |----|
⑥口口口 |③④⑤⑥|
42
口口口口 |①---|
口①口口 |②---|
口口②口
口口口口

口口口口
口⑥口口
④⑤口口 |③-④-|
③口口口 |⑤-⑥-|
43
口⑧④口 |①-②-|
⑥⑦③② |③-④-|
⑤口口① |⑤-⑥-|
口口口口 |⑦-⑧-|
44
口口口口 |①-②-|
⑤口④口 |③-④-|
⑥⑦③② |⑤-⑥-|
口⑧口① |⑦-⑧-|
45
⑦口④口 |①-②-|
口⑧③② |③-④-|
⑥口⑨① |⑤-⑥-|
⑤口口⑩ |⑦⑧⑨⑩|
46
口⑥口口 |①---|
④⑤①口 |②---|
③②口口 |③-④-|
口口口口 |⑤-⑥-|
47
口口④口 |①-②-|
口⑧③② |③-④-|
⑥⑦口① |⑤-⑥-|
⑤口口口 |⑦-⑧-|
48
口口口口 |①-②-|
⑤口④口 |③-④-|
⑥⑦③② |⑤-⑥-|
口⑧口① |⑦-⑧-|
49
⑦⑦④口 |①-②-|
口口③② |③-④-|
⑥⑥口① |⑤-⑥-|
⑤⑤口口 |⑦---|
50
⑤⑤口③ |①-②-|
④④②口 |③---|
口口口③ |---④|
口口①口 |--⑤-|
51
口口口口 |----|
③③口① |①---|
②②口口 |---②|
口口口① |--③-|
52
口口①口 |----|
口口口口 |①---|
③③①口 |---②|
②②口口 |--③-|


不确定度: 0

最終更新:2013年03月23日 20:45