SAMURAI GROOVE
DUFF

EXTREME

Level: 8
BPM: 128
Notes: 646

1
口口口口 |----|
口口口口 |----|
口口口口 |----|
口口口口 |----|
2
口口⑦口 |①-②-|
④①⑧⑥ |③-④-|
③②⑨⑤ |⑤-⑥⑦|
口口口口 |⑧-⑨-|
3
②口口口 |--①②|
③④⑦⑥ |③-④-|
口①⑧⑤ |⑤-⑥-|
口口口口 |⑦-⑧-|
4
口口口口 |①-②-|
①②⑥⑤ |③-④-|
④③⑦⑧ |⑤-⑥-|
口口口口 |⑦-⑧-|
5
②口口口 |--①②|
③④⑦⑧ |③-④-|
口①⑥⑤ |⑤-⑥-|
口口口口 |⑦-⑧-|
6
口口⑩口 |①②③-|
⑥①⑪⑨ |④⑤⑥-|
④③⑬⑦ |⑦⑧⑨⑩|
⑧⑫②⑤ |⑪⑫⑬-|
7
③口口口 |-①②③|
④⑥⑩⑨ |④⑤⑥-|
口②⑫⑦ |⑦⑧⑨-|
⑧⑪①⑤ |⑩⑪⑫-|
8
口口口口 |①②③-|
①③⑨⑦ |④⑤⑥-|
⑥④⑩⑫ |⑦⑧⑨-|
⑧⑪②⑤ |⑩⑪⑫-|
9
口①①口 |①-②-|
口⑥⑦⑧ |③-④-|
②③④⑤ |⑤-⑥-|
口口口口 |⑦-⑧-|
10
①②③④ |①-②-|
⑤口⑦口 |③-④-|
⑤⑥口⑧ |⑤-⑥-|
④③②① |⑦-⑧-|
11
①②③④ |①-②-|
⑤口⑦口 |③-④-|
⑤⑥口⑧ |⑤-⑥-|
④③②① |⑦-⑧-|
12
①②③④ |①-②-|
⑥⑦⑧⑤ |③-④-|
⑤⑧⑦⑥ |⑤-⑥-|
④③②① |⑦-⑧-|
13
①口口② |①-②-|
口③⑤③ |--③-|
③④③⑥ |--④-|
②口口① |⑤-⑥-|
14
①②③④ |①-②-|
⑤口⑦口 |③-④-|
⑤⑥口⑧ |⑤-⑥-|
④③②① |⑦-⑧-|
15
①②③④ |①-②-|
⑤口⑦口 |③-④-|
⑤⑥口⑧ |⑤-⑥-|
④③②① |⑦-⑧-|
16
①②③④ |①-②-|
⑥⑦⑧⑤ |③-④-|
⑤⑧⑦⑥ |⑤-⑥-|
④③②① |⑦-⑧-|
17
①③口② |①-②-|
④⑤④⑤ |--③-|
⑤④⑤④ |--④-|
②口③① |⑤---|
18
②口口② |①-②-|
③④⑤口 |-③④⑤|
口口口口
①口口①

口⑥口口
口口口口
口⑦口口 |⑥⑦⑧⑨|
⑧⑨⑩口 |⑩---|
19
口口⑦口 |-①②③|
口口⑥③ |④⑤⑥⑦|
⑤口口②
④口口①

口口口口
⑩口口⑩
口⑨⑨口 |⑧-⑨-|
口⑧⑧口 |⑩---|
20
⑤⑥⑭⑬ |①②③④|
⑨⑩⑦⑧ |⑤⑥⑦⑧|
⑯⑮⑪⑫ |⑨⑩⑪⑫|
①②③④ |⑬⑭⑮⑯|
21
⑦④⑤⑦ |①-②-|
口③③口 |③-④⑤|
⑥口口⑥ |⑥-⑦-|
②①①② |----|
22
⑤⑥④口 |①②③-|
①④②③ |④-⑤⑥|
口口④口
口④口口

口口口口
⑨口口⑩
⑪⑫口⑬ |⑦⑧⑨⑩|
口口⑦⑧ |-⑪⑫⑬|
23
口口①口 |①②③-|
口②口口 |④-⑤-|
口口③口
⑤④口⑤

⑥口口⑥
⑦口口⑨
口口⑧口 |⑥-⑦⑧|
口口口口 |⑨---|
24
⑪口⑤口 |①②③④|
⑨⑥③⑩ |⑤⑥⑦⑧|
口②⑦④ |⑨⑩⑪-|
①⑧口⑫ |⑫---|
25
⑧④⑤⑨ |①-②③|
③口口⑥ |④⑤⑥⑦|
②口口⑦ |⑧⑨-⑩|
⑩①①⑪ |⑪---|
26
④口口⑤ |①-②③|
⑥①①⑦ |④⑤⑥⑦|
②口口③
口口口口

口口口口
口口⑭口
⑬⑧⑨口 |⑧⑨⑩⑪|
口⑩⑪⑫ |-⑫⑬⑭|
27
①②③④ |①②③④|
⑤口⑨⑥ |⑤-⑥-|
口⑧⑧口 |⑦-⑧⑨|
⑦⑧⑧⑦ |----|
28
①口⑤① |①-②③|
②口口口 |-④-⑤|
口口口③
④口口④

口口口口
⑩⑥口⑩
⑨口⑦⑨ |⑥⑦⑧-|
口⑧口口 |⑨-⑩-|
29
①⑧⑦② |①-②-|
⑫④③⑫ |③④⑤⑥|
⑪⑤⑥⑪ |⑦⑧⑨⑩|
口⑨⑩口 |⑪-⑫-|
30
④⑨⑩② |①②-③|
口⑦⑦口 |④-⑤⑥|
⑤⑪⑫⑥ |⑦-⑧⑨|
①⑧⑧③ |⑩⑪⑫-|
31
①⑥⑦口 |-①②③|
③④⑤② |④⑤⑥⑦|
口口口口
口口口口

⑩口口⑩
口⑫⑫口
⑨⑪⑪⑨ |⑧⑨-⑩|
⑧口口⑧ |-⑪-⑫|
32
⑫①②⑫ |①②③④|
⑥⑦⑧⑥ |⑤-⑥-|
⑪⑨⑩⑪ |⑦⑧⑨⑩|
⑤③④⑤ |⑪-⑫-|
33
口①①口 |①--②|
④②③⑤ |③④⑤⑥|
口口口口
口⑥⑥口

⑧口⑨⑧
口⑩口口
口口⑪口 |⑦-⑧-|
⑦口口⑦ |⑨⑩⑪-|
34
口口口③ |①--②|
④口⑥口 |--③-|
④⑤口⑦ |④-⑤-|
③①口② |⑥-⑦-|
35
⑥口⑤⑦ |①②③④|
⑧④口⑨ |⑤-⑥⑦|
⑩口③⑪ |⑧⑨⑩⑪|
⑫②①⑬ |⑫-⑬-|
36
①②口口 |①--②|
④⑤⑥③ |----|
③⑥⑤④ |③-④-|
口口口口 |⑤-⑥-|
37
①口⑨② |-①②③|
⑥⑩口⑤ |④-⑤-|
⑦口⑪⑧ |-⑥⑦⑧|
③口口④ |⑨⑩⑪-|
38
口口口③ |①--②|
④口⑥口 |--③-|
④⑤口⑦ |④-⑤-|
③①口② |⑥-⑦-|
39
⑤口④⑥ |-①②③|
⑦③口口 |④-⑤⑥|
口口②⑧ |⑦-⑧-|
⑨①口⑩ |⑨-⑩-|
40
①②口口 |①--②|
④口口③ |----|
③⑦口④ |③-④-|
⑤口口⑥ |-⑤⑥⑦|
41
①口口③ |①②③④|
口②④口 |-⑤⑥⑦|
⑦口口口
口⑤⑥口

口口⑪口
⑨⑫口⑩
口口⑬⑧ |⑧⑨⑩-|
口口口口 |⑪⑫⑬-|
42
口口口③ |①--②|
④口⑥口 |--③-|
④⑤口⑦ |④-⑤-|
③①口② |⑥-⑦-|
43
①②③④ |①-②-|
⑤口⑦口 |③-④-|
⑤⑥口⑧ |⑤-⑥-|
④③②① |⑦-⑧-|
44
①②③④ |①-②-|
⑥⑦⑧⑤ |③-④-|
⑤⑧⑦⑥ |⑤-⑥-|
④③②① |⑦-⑧-|
45
①口④② |①-②-|
③⑤口③ |--③-|
③口⑥③ |----|
②口口① |④⑤⑥-|
46
口口口③ |①--②|
④口⑥口 |--③-|
④⑤口⑦ |④-⑤-|
③①口② |⑥-⑦-|
47
①②③④ |①-②-|
⑤口⑦口 |③-④-|
⑤⑥口⑧ |⑤-⑥-|
④③②① |⑦-⑧-|
48
①②③④ |①-②-|
⑥⑦⑧⑤ |③-④-|
⑤⑧⑦⑥ |⑤-⑥-|
④③②① |⑦-⑧-|
49
①口口② |①-②-|
口口口口 |③④⑤-|
⑤口口⑤
②③④①

⑩口口⑪
⑥口口⑦
口口口口 |⑥-⑦-|
⑧口口⑨ |⑧⑨⑩⑪|
50
口③⑦⑦ |①-②-|
④①⑧⑥ |③-④-|
③②⑨⑤ |⑤-⑥⑦|
口口口⑨ |⑧-⑨-|
51
口③⑦⑦ |①-②-|
④①⑧⑥ |③-④-|
③②⑨⑤ |⑤-⑥⑦|
口口口⑨ |⑧-⑨-|
52
口③⑦⑦ |①-②-|
④①⑧⑥ |③-④-|
③②⑨⑤ |⑤-⑥⑦|
口口口⑨ |⑧-⑨-|
53
口口②口 |①---|
口①口口 |②---|
口口口口
口口口口

⑧③口⑧
⑨⑤④⑨
⑩口⑥⑩ |③④-⑤|
⑪⑦口⑪ |⑥-⑦-⑧⑨⑩⑪|


不确定度: 0

最終更新:2013年03月23日 20:44