Runner
爆風スランプ

ADVANCED

Level: 4
BPM: 125
Notes: 325

1
口口口口 |----|
口口口口 |----|
①②③口 |----|
口口口口 |-①②③|
2
口口口口 |①---|
口④③② |----|
口口口口 |----|
口①①口 |-②③④|
3
口①①口 |①---|
口口口口 |----|
口口口口 |----|
②③④口 |-②③④|
4
口口口口 |①---|
口口口口 |----|
口①①口 |----|
口口口口 |----|
5
口口口口 |①---|
①①①① |----|
口口口口
口口口口

②②②②
口口④③
口口口口 |②---|
口口口口 |③-④-|
6
口口口口 |①---|
口①⑤口 |②-③-|
④③②口 |④---|
口口口口 |--⑤-|
7
口口口口 |①---|
口①⑤④ |②---|
口口口口 |③---|
口③②口 |④-⑤-|
8
口口口口 |①---|
口①口口 |②-③-|
④③②口 |④-⑤-|
口⑦⑥⑤ |⑥-⑦-|
9
口口口口 |①---|
口①①口 |②---|
②口口②
口口口口

口③③口
口口⑤④
口口口口 |③---|
口口口口 |④-⑤-|
10
口口口口 |①---|
口①⑤口 |②-③-|
④③②口 |④---|
口口口口 |--⑤-|
11
口口⑤④ |①---|
口①口口 |②---|
口口口口 |③---|
口③②口 |④-⑤-|
12
口①口口 |①---|
④③②口 |②-③-|
口⑦⑥⑤ |④-⑤-|
口口口口 |⑥-⑦-|
13
口口口口 |①---|
口②②口 |②---|
③口口③ |③---|
口①①口 |----|
14
口⑥③口 |--①-|
口⑤②口 |②-③-|
口口①口 |④-⑤⑥|
口④口⑦ |--⑦-|
15
⑥口口③ |①-②-|
⑤口口② |③-④-|
口口口① |⑤--⑥|
④口口口 |----|
16
口口③口 |--①-|
口口②口 |②-③-|
口口①口
口口口口

口⑥口口
口⑤口口
口⑦⑦口 |④-⑤⑥|
口④口口 |--⑦-|
17
口口①口 |①---|
口②口口 |②---|
口口③口 |③---|
口④口口 |④---|
18
口④①⑦ |--①-|
口口②口 |②-③-|
口⑤③口 |④-⑤⑥|
口⑥口口 |--⑦-|
19
④口口口 |①-②-|
口口口① |③-④-|
⑤口⑦② |⑤--⑥|
⑥口口③ |--⑦-|
20
口③②口 |①-②③|
口①口口 |----|
口口口口 |----|
口口口口 |----|
21
口口口口 |----|
口口口口 |----|
口口口口 |----|
口口口口 |----|
22
口⑥③口 |--①-|
口⑤②口 |②-③-|
口口①口 |④-⑤⑥|
口④口⑦ |--⑦-|
23
⑥口口③ |①-②-|
⑤口口② |③-④-|
口口口① |⑤--⑥|
④口口口 |----|
24
口口③口 |--①-|
口口②口 |②-③-|
口口①口
口口口口

口⑥口口
口⑤口口
口⑦⑦口 |④-⑤⑥|
口④口口 |--⑦-|
25
口口①口 |①---|
口②口口 |②---|
口口③口 |③---|
口④口口 |④---|
26
口④①⑦ |--①-|
口口②口 |②-③-|
口⑤③口 |④-⑤⑥|
口⑥口口 |--⑦-|
27
④口口口 |①-②-|
口口口① |③-④-|
⑤口⑦② |⑤--⑥|
⑥口口③ |--⑦-|
28
口③②口 |①-②③|
口①口口 |----|
口口口口 |----|
口口口口 |----|
29
口口口口 |----|
口口口口 |----|
口口口口 |----|
口口口口 |----|
30
④③②① |--①-|
口口口口 |②-③-|
口⑥⑤口 |④--⑤|
口口口口 |--⑥-|
31
口口口口 |①---|
口②②口 |----|
口口口口 |②---|
口①①口 |----|
32
口口口口 |--①-|
口⑥⑤口 |②-③-|
口口口口 |④--⑤|
④③②① |--⑥-|
33
②口口② |①---|
③口口③ |②---|
④①①④ |③---|
口口口口 |④---|
34
口口口口 |--①-|
口⑥⑤口 |②-③-|
口口口口 |④--⑤|
④③②① |--⑥-|
35
口②②口 |①---|
口口口口 |----|
口①①口 |②---|
口口口口 |----|
36
口口口口 |①---|
①口口① |----|
口口口口 |----|
口口口口 |----|
37
口口口口 |----|
口口②① |----|
口口口口 |----|
口口口口 |①-②-|
38
口口口口 |①---|
口①⑤口 |②-③-|
④③②口 |④---|
口口口口 |--⑤-|
39
口口⑤④ |①---|
口①口口 |②---|
口口口口 |③---|
口③②口 |④-⑤-|
40
口①口口 |①---|
④③②口 |②-③-|
口⑦⑥⑤ |④-⑤-|
口口口口 |⑥-⑦-|
41
口口⑤④ |①---|
口②②口 |②---|
③口口③ |③---|
口①①口 |④-⑤-|
42
口①口口 |①---|
口口⑤口 |②-③-|
口口口口 |④---|
④③②口 |--⑤-|
43
口口⑤④ |①---|
口①口口 |②---|
口口口口 |③---|
口③②口 |④-⑤-|
44
口①口口 |①---|
④③②口 |②-③-|
口⑦⑥⑤ |④-⑤-|
口口口口 |⑥-⑦-|
45
口口口口 |①---|
口②②口 |②---|
口口口口
口①①口

口口口口
口口⑤④
③口口③ |③---|
口口口口 |④-⑤-|
46
口口口口 |①---|
口①⑤口 |②-③-|
④③②口 |④---|
口口口口 |--⑤-|
47
口口⑤④ |①---|
口①口口 |②---|
口口口口 |③---|
口③②口 |④-⑤-|
48
口①口口 |①---|
④③②口 |②-③-|
口⑦⑥⑤ |④-⑤-|
口口口口 |⑥-⑦-|
49
口口口口 |①---|
口②②口 |②---|
口口口口
口①①口

口口口口
口口⑤④
③口口③ |③---|
口口口口 |④-⑤-|
50
口口口口 |①---|
口①口口 |②-③-|
口⑤⑤口 |④---|
④③②口 |--⑤-|
51
③①①③ |①---|
口口⑤④ |②---|
②口口② |③---|
口口口口 |④-⑤-|
52
口口口口 |①-②-|
口①口口 |③-④-|
⑧⑦⑥⑤ |⑤-⑥-|
④③②口 |⑦-⑧-|
53
③口口③ |①---|
口②②口 |②---|
④⑤⑥口 |③---|
口①①口 |-④⑤⑥|
54
口口口口 |①---|
口④③② |----|
口口口口 |----|
口①①口 |-②③④|
55
口①①口 |①---|
口口口口 |----|
口口口口 |----|
②③④口 |-②③④|
56
口口口口 |①---|
口口口口 |----|
口①①口 |----|
口口口口 |----|
57
口①①口 |--①-|
⑤②②⑤ |-②--|
口③③口 |③--④|
口④④口 |--⑤-|
58
口口口口 |①---|
口口口口 |----|
①口口① |----|
口口口口 |----|


不确定度: 0

最終更新:2013年03月23日 16:05